#TITLE:Claim You;
#SUBTITLE:Hardcore;
#ARTIST:Angerfist & Dyprax;
#CREDIT:Peter;
#MUSIC:Angerfist & Dyprax - Claim You.ogg;
#SELECTABLE:YES;
#BACKGROUND:../bg.png;
#BANNER:../banner.png;
#CDTITLE:;
#OFFSET:-0.341;
#SAMPLESTART:41.140;
#SAMPLELENGTH:14.050;
#BPMS:0.000=175.000;
#STOPS:;

//---------------dance-single - Peter----------------
#NOTES:
     dance-single:
     Peter:
     Challenge:
     10:
     0.000,0.000,0.000,0.000,0.000:
0000
0000
0000
0000
,
0000
0000
0000
0000
,
0000
0000
0000
0000
,
0000
0000
0000
0000
,
0000
0000
0000
0000
,
0000
0000
0000
0000
,
0000
0000
0000
0000
,
0000
0000
0000
0000
0000
0000
1000
0001
,
0100
0000
0001
1000
0000
1000
0100
0000
,
0100
1000
0000
1000
0010
0100
0001
1000
,
0010
0000
1000
0001
0000
0001
0010
0000
,
0010
0001
0000
0001
0100
0010
1000
0001
,
0100
0000
0001
1000
0000
1000
0100
0000
,
0100
1000
0000
1000
0010
0100
0001
1000
,
0001
1000
0001
1000
0001
1000
0001
1000
,
0001
1000
0001
1000
0001
1000
1001
0000
,
0001
1001
0000
1000
1100
0000
1100
0000
,
0100
0110
0000
0010
0110
0000
0110
0000
,
0100
1100
0000
1000
1001
0000
1001
0000
,
0001
0101
0000
0100
0101
0000
0101
0001
,
0101
1001
1000
1100
1001
0001
1001
0001
,
0011
1001
1000
1010
1001
1000
1001
0001
,
0011
1001
1000
1010
1001
0001
1001
0001
,
0101
1001
1000
1100
1001
1000
1001
1000
,
1000
1000
0001
0001
0001
0001
0101
0100
,
0100
0100
0010
0010
0010
0010
1010
1000
,
1000
1000
1001
0001
0001
0001
1001
1000
,
1001
0000
0001
0000
1001
0000
1000
0000
1001
0000
0001
0000
0000
1000
0001
0100
,
0010
1000
0001
0100
0010
1000
0001
0010
0100
1000
0001
0010
0100
1000
0001
1000
,
0001
1000
0001
1000
0001
1000
0001
1000
0001
1000
0001
1000
000M
0000
0000
0000
,
0000
0000
0000
0000
,
0000
0000
1000
0101
,
0101
0000
0000
1000
0001
0000
0100
0000
0010
0000
0000
1000
0001
0000
1000
0010
,
0100
0000
0010
0010
1000
0001
1010
0000
,
1010
0000
0000
0001
1000
0000
0010
0000
0100
0000
0000
0001
1000
0000
0001
0100
,
0010
0000
0100
0010
1000
0001
0011
0000
,
0011
0000
0000
1000
0001
0000
0010
0000
0100
0000
0000
1000
0001
0000
1000
0100
,
0010
0000
0000
0000
0100
0000
0010
0000
0001
0000
1000
0000
0101
0000
0000
0110
,
0000
0000
1010
0000
0010
0000
1000
0010
0100
0000
0001
0000
1000
0000
0000
0000
,
0000
1000
0010
0000
0100
0000
0000
0000
0001
0000
0000
0000
1100
0000
1100
0000
,
1100
0000
0000
0001
1000
0000
0100
0000
0010
0000
0000
0001
1000
0000
0001
0010
,
0100
0000
0010
0010
0001
1000
0011
0000
,
0011
0000
0000
1000
0001
0000
0010
0000
0100
0000
0000
1000
0001
0000
1000
0100
,
0010
0000
0100
0010
0001
1000
0101
0000
,
0101
1010
1010
1001
,
1000
0000
0001
0000
1000
0010
0100
0001
0010
0000
0100
0000
1001
0000
0000
0000
,
0000
0000
0000
0000
,
0000
0000
0001
1010
,
1010
0000
0000
0001
1000
0000
0010
0000
0100
0000
0000
0001
1000
0000
0001
0100
,
0010
0000
0100
0100
0001
1000
0101
0000
,
0101
0000
0000
1000
0001
0000
0100
0000
0010
0000
0000
1000
0001
0000
1000
0010
,
0100
0000
0010
0100
0001
0000
1000
0100
0010
0000
0000
0000
0001
0000
0000
0000
,
0011
0000
0000
0001
1000
0000
0100
0000
1100
0000
0000
0001
0100
0000
0001
0000
,
0101
0000
0010
0100
1001
0001
1000
0010
,
1000
1000
1000
1000
1000
1000
1000
0000
,
0000
0000
0000
0001
,
0001
0001
0001
0001
,
0001
0001
0001
0001
,
0001
0001
0001
0001
,
0001
0001
0001
0000
,
0000
0000
0000
0000
,
00M0
0000
0000
0000
,
0000
0000
0000
00M0
0000
00M0
0000
0000
;
