#TITLE:Bitter Chocolate Striker;
#SUBTITLE:Hardstyle;
#ARTIST:L.E.D.-G;
#TITLETRANSLIT:;
#SUBTITLETRANSLIT:;
#ARTISTTRANSLIT:;
#GENRE:;
#CREDIT:Peter;
#BACKGROUND:../bg.png;
#BANNER:../banner.png;
#LYRICSPATH:;
#CDTITLE:;
#MUSIC:L.E.D.-G - Bitter Chocolate Striker.ogg;
#OFFSET:-0.374;
#SAMPLESTART:105.104;
#SAMPLELENGTH:12.000;
#SELECTABLE:YES;
#BPMS:0.000=165.000;
#STOPS:;
#BGCHANGES:;
#KEYSOUNDS:;

//---------------dance-single - ----------------
#NOTES:
     dance-single:
     Peter:
     Challenge:
     10:
     0.000,0.000,0.000,0.000,0.000:
0000
0000
0000
0000
,
0000
0000
0000
0000
,
0000
0000
0000
0000
,
0000
0000
0000
0000
,
0000
0000
0000
0000
,
0000
0000
0000
0000
,
0000
0000
0000
0000
,
0000
0000
0000
0000
,
0001
1000
0001
1000
,
0010
0000
0000
0100
0000
0000
0010
0000
0000
0100
0000
0001
,
0010
0100
0010
0100
,
1000
0000
1000
0010
0000
0000
0100
0000
0001
0010
0000
0100
,
1000
1000
0001
0001
,
0100
0100
0010
0010
,
1000
0000
0000
1000
0000
0000
0010
1000
0010
1000
0000
0000
,
1001
0000
0000
0000
0000
0000
0000
0000
0000
1001
0000
0001
,
1000
1001
1001
0101
,
0101
1010
1010
1100
,
1100
0000
0000
0011
0000
0000
0011
0000
0010
0001
0000
0001
,
0010
0100
1000
0100
0000
1100
0000
0000
0000
1000
0001
0100
,
0010
0010
1000
1000
,
0001
0001
0010
0010
,
0100
0000
0000
0100
0000
0000
0100
1000
0100
1000
0000
0001
,
0100
0000
0010
1000
0000
1000
0100
0000
0100
0010
0000
0010
,
0002
0000
0000
0000
,
0000
2000
0000
0003
,
3001
0000
1000
0100
0010
0001
1000
0000
1000
0001
0000
0100
,
0000
0000
0010
1000
0010
0100
0001
0100
0010
0100
1000
0100
,
0010
0000
0010
1000
0100
0010
0001
0010
1000
0001
0100
1000
,
0010
0000
1000
0010
0000
1000
0010
0000
1000
0001
0000
0001
,
1000
0000
0001
0100
0010
1000
0001
0000
0001
1000
0000
0100
,
0000
0000
0010
0001
0010
0100
1000
0100
0010
0100
0001
0100
,
0010
0000
0010
0001
0100
0010
1000
0010
0001
1000
0100
0001
,
1000
0010
0100
0010
1000
0001
0010
0100
1000
0001
0100
0010
,
0100
0000
0100
0010
1000
0100
0010
0000
0010
0100
0000
0100
,
0010
0001
1000
0010
0100
0001
0010
0000
0001
0010
0000
0100
,
1000
0001
0100
0010
1000
0010
0001
0010
0100
0010
1000
0001
,
0100
0000
0100
0010
0000
0010
1000
0000
1000
0001
0000
0001
,
1000
0000
0010
0100
0001
1000
0200
0000
0000
1300
0000
1000
,
0100
0000
0010
0001
1000
0001
0200
0000
0000
0301
0000
0000
,
1000
0000
0010
0100
0001
1000
0100
0000
1000
0100
0000
1000
,
0100
0000
0000
0000
0010
0000
0001
0000
1000
0000
0001
0000
0100
0000
0000
0000
0001
0000
0100
0000
0000
0000
0001
0100
,
0001
0000
0001
0010
0100
1000
0001
0000
0001
0010
0000
0100
,
0000
0000
0010
0001
0010
0100
1000
0100
0010
0100
0001
0100
,
0010
0000
0010
0001
0100
0010
1000
0010
0001
1000
0100
0001
,
0010
0000
0000
0000
0001
1000
0001
0000
0000
0000
0100
0001
0100
0000
0000
0000
0010
1000
0010
0000
0000
0000
1000
0001
,
1000
0000
1000
0100
0010
0001
1000
0000
1000
0001
0000
0100
,
0000
0000
0010
1000
0010
0100
0001
0100
0010
0100
1000
0100
,
0010
0000
0000
0000
0010
0000
1000
0000
0100
0000
0010
0000
0001
0000
0010
0001
0010
0000
0001
0000
0010
0000
0100
0000
,
1000
0010
0100
0020
0000
0000
0130
0000
0010
1000
0000
0001
,
0100
0000
0000
0000
,
0000
0000
0000
0000
,
0000
0000
0000
0000
,
0000
0000
0000
0000
,
0000
0000
0000
0000
,
0000
0000
0000
0000
,
0000
0000
0000
0000
,
0000
0000
0000
0000
,
1100
1000
0001
0100
,
0001
0000
0000
1000
0000
0000
0100
0000
0100
1000
0000
1000
,
0010
1000
0001
0100
,
0101
0000
0000
0000
,
0200
0000
0001
0000
0000
0001
0000
0000
0001
0000
0000
0001
,
0000
0000
0001
0000
0000
0001
0000
0000
0010
0000
0000
0010
,
0000
0000
1000
0000
0000
1000
0000
0000
1000
0000
0000
0010
,
0000
0000
0001
0000
0000
0001
0300
0000
0001
1000
0000
0001
,
1000
0000
0000
1001
0000
0000
1001
0000
1000
0001
0000
0001
,
1000
0000
0000
1001
0000
0000
1001
0000
0001
0100
0010
1000
,
0001
1000
0001
1000
,
0001
0000
0100
0000
0010
0000
1000
0001
1000
0001
1000
0001
1000
0000
0000
0000
0010
0000
0000
0000
0100
0000
0000
0000
,
0002
0000
0000
0000
,
0000
2000
0000
0003
,
3001
0000
1000
0100
0010
0001
1000
0000
1000
0001
0000
0100
,
0000
0000
0010
1000
0010
0100
0001
0100
0010
0100
1000
0100
,
0010
0000
0010
1000
0100
0010
0001
0010
1000
0001
0100
1000
,
0010
0000
1000
0010
0000
1000
0010
0000
1000
0001
0000
0001
,
1000
0000
0001
0100
0010
1000
0001
0100
0001
1000
0000
0100
,
0000
0000
0010
0001
0010
0100
1000
0100
0010
0100
0001
0100
,
0010
0000
0010
0001
0100
0010
1000
0010
0001
1000
0100
0001
,
1000
0010
0100
0010
1000
0001
0010
0100
1000
0001
0100
0010
,
0100
0000
0100
0010
1000
0100
0010
0000
0010
0100
0000
1000
,
0000
1000
0010
0100
0010
0001
0010
0100
0001
1000
0100
0010
,
0001
1000
0100
0010
1000
0010
0001
0010
0100
0010
0001
1000
,
0100
0000
0100
0010
0000
0010
0001
0000
0001
1000
0000
1000
,
0001
0000
0001
0010
0000
0010
0100
0000
0100
1000
0000
1000
,
0010
0000
0100
0000
0001
0000
0100
0000
0010
0000
1000
0000
0001
0000
1000
0001
1000
0000
0010
0000
0100
0000
0001
0000
,
1000
0000
0100
0000
0010
0000
0002
0000
0000
0000
0000
0000
1003
0000
0010
0000
1000
0000
0001
0000
0100
0001
0100
0001
,
0100
0010
1000
0100
0010
0001
1000
0000
0100
0000
0010
0000
,
2002
0000
0000
0000
,
3003
0000
0000
0000
,
0000
0000
0000
0000
;
