#TITLE:Alacrity;
#SUBTITLE:Hard Trance;
#ARTIST:MegaSphere;
#TITLETRANSLIT:;
#SUBTITLETRANSLIT:;
#ARTISTTRANSLIT:;
#GENRE:;
#CREDIT:Peter;
#BANNER:../banner.png;
#BACKGROUND:../bg.png;
#LYRICSPATH:;
#CDTITLE:;
#MUSIC:MegaSphere - Alacrity.ogg;
#OFFSET:0.000;
#SAMPLESTART:27.255;
#SAMPLELENGTH:13.000;
#SELECTABLE:YES;
#BPMS:0.000=145.000;
#STOPS:;
#BGCHANGES:;
#KEYSOUNDS:;

//---------------dance-single - Peter----------------
#NOTES:
     dance-single:
     Peter:
     Challenge:
     13:
     0.000,0.000,0.000,0.000,0.000:
0000
0000
0000
0000
,
0000
0000
0000
0000
0000
0000
0000
2002
,
3003
0000
0000
0000
0000
0000
0000
0202
,
0303
0000
0000
0000
0000
0000
0000
2020
,
3030
0000
0000
0000
0000
0000
0000
0000
0100
0000
1000
0000
0010
0000
0100
0001
,
0000
0000
0000
0000
0000
0000
0000
0022
,
0033
0000
0000
0000
0000
0000
0000
2020
,
3130
0001
0100
0001
0100
0000
0001
0100
0000
0000
0000
0000
0000
0000
0000
0000
,
1000
0100
1000
0100
1000
0000
0100
1000
0001
0010
0100
1000
0001
0000
0110
0000
,
1001
0000
1000
0010
0100
0000
0001
0000
0100
0000
0000
0010
0000
0000
0220
0000
,
0330
0000
0001
0100
0010
0000
1000
0000
0010
0000
0000
0100
0000
0000
2002
0000
,
3003
0000
1000
0100
0010
0000
0001
0000
0010
0000
0000
0100
0000
0000
0220
0000
,
0330
0000
0001
0010
0100
0000
0010
0000
0100
0000
0010
0000
0001
0010
0001
1000
,
0010
0000
1000
0010
0100
0000
0001
0000
0100
0000
0000
0010
0000
0000
0220
0000
,
0330
0000
0001
0100
0010
0000
1000
0000
0010
0000
0000
0100
0001
1000
0001
1000
,
0001
0100
0001
0100
0010
0000
0100
0010
0000
0000
0000
0000
0000
0000
0000
0000
,
1000
0100
1000
0100
1000
0000
0100
0010
0001
0000
1000
0000
1001
0000
0110
0000
,
1000
0000
0001
0000
0100
0000
0010
0000
1000
0000
0000
0000
1000
0000
0010
1000
0010
0000
0100
0000
0001
0000
0010
0000
0100
0000
1000
0000
0001
0000
0000
0000
,
0001
1000
0100
0010
0100
0000
0100
0010
0001
1000
0001
1000
0001
0000
0000
0000
,
0001
0000
1000
0000
0100
0000
0010
0000
0001
0000
0000
0000
0001
0000
0010
0001
0010
0000
0100
0000
1000
0000
0010
0000
0100
0000
0001
0000
1000
0000
0000
0000
,
1000
0001
0100
0010
0100
0000
0100
0010
1000
0000
0010
0000
0100
0010
0100
0001
,
1000
0000
0001
0000
0100
0000
0010
0000
1000
0000
0000
0000
1000
0000
0010
1000
0010
0000
0100
0000
0001
0000
0010
0000
0100
0000
1000
0000
0001
0000
0000
0000
,
0001
1000
0100
0010
0100
0000
0100
0010
0001
1000
0001
1000
0001
0100
0010
0100
,
0001
0000
1000
0000
0100
0000
0010
0000
0001
0000
0000
0000
0001
0000
0010
0001
0010
0000
0100
0000
1000
0000
0010
0000
0100
0000
0001
0000
1000
0000
0000
0000
,
1000
0001
0100
0010
0100
0000
0100
0010
1000
0000
0010
0000
0100
0000
0001
0010
,
0001
0000
0100
0000
0001
0000
0100
0000
0010
0000
1000
0000
0010
0000
1000
0000
0001
0000
1000
0000
0010
0000
0100
0000
0001
0000
1000
0000
0010
0000
0100
0001
,
0100
0000
0010
0000
1000
0000
0010
1000
0010
0000
0100
0000
0001
0000
0000
0000
0001
0000
1000
0000
0100
0000
0010
0000
0001
0000
1000
0000
0010
0000
0100
0000
,
0001
0000
0000
0000
0000
0000
0000
0000
2020
0000
0000
0000
3030
0000
0000
0000
1000
0000
0100
0000
0010
0000
0001
0000
1000
0000
0100
0000
0010
0000
0001
1000
,
0001
0000
0010
0000
0100
0000
0010
0100
0010
0000
0001
0000
1000
0000
0000
0000
1000
0000
0001
0000
0100
0000
0010
0000
1000
0000
0001
0000
0010
0000
0100
0000
,
1000
0000
0000
0000
0010
0000
0000
0000
0100
0000
0000
0000
0001
0000
1000
0000
0001
0000
1000
0000
0010
0000
0100
0000
0001
0000
1000
0000
0010
0000
0100
0001
,
0100
0000
0010
0000
1000
0000
0010
1000
0010
0000
0100
0000
0001
0000
0000
0000
0001
0000
1000
0000
0100
0000
0010
0000
0001
0000
1000
0000
0010
0000
0100
0000
,
0001
0000
0000
0000
0000
0000
0000
0000
2020
0000
0000
0000
3030
0000
0000
0000
0001
0000
0010
0000
0100
0000
1000
0000
0001
0000
0010
0000
0100
0000
1000
0001
,
1000
0000
0100
0000
0010
0000
0100
0010
0100
0000
1000
0000
0001
0000
0000
0000
0001
0000
1000
0000
0010
0000
0100
0000
0001
0000
1000
0000
0100
0000
0010
0000
,
0001
0000
0000
0000
0000
0000
0100
0000
0000
0000
0000
0000
0010
0000
0000
0000
0000
0000
1000
0000
0000
0100
0000
0000
1000
0000
0000
0000
0001
0000
0000
0000
1000
0000
0000
0000
0001
0000
1000
0000
0001
0000
0000
0000
1000
0000
0000
0000
,
0100
0000
M100
0000
0001
0000
0010
0000
001M
0000
1000
0001
1000
0000
0001
0000
1000
0000
0100
0000
0010
0000
0100
0000
,
0010
0M10
1000
0100
M100
0001
1000
0001
1000
0002
1000
1003
,
0100
0000
M100
0000
0001
0000
0010
0000
001M
0000
1000
0001
1000
0000
0001
0000
1000
0000
0100
0000
0010
0000
0100
0000
,
0010
0M10
1000
0100
M100
0001
1000
0000
1000
0001
0010
0100
,
0010
0000
0M10
0000
1000
0000
0100
0000
M100
0000
0001
1000
0001
0000
1000
0000
0001
0000
1000
0000
1000
0000
1000
0000
,
0100
0000
M100
0000
0001
0000
0010
0000
001M
0000
1000
0000
0001
0000
1000
0000
0001
0000
1000
0000
0001
1000
0001
0000
,
0010
0000
001M
0000
1000
0000
0100
0000
M100
0000
0001
1000
0001
0000
1000
0000
0001
0000
0010
0000
0100
0000
0010
0001
,
0010
0000
001M
0000
1000
0000
0010
0000
M010
0000
0001
0000
1000
0000
0000
0000
1000
0000
0001
0000
1000
0001
1000
0001
,
0100
0000
010M
0000
1000
0000
0010
0000
M010
0000
0001
1000
0001
0000
1000
0000
0001
0000
0100
0000
0010
0000
0100
0000
,
0010
0M10
0001
0100
010M
1000
0001
1000
0001
2000
0001
3001
,
0100
0000
010M
0000
1000
0000
0010
0000
M010
0000
0001
1000
0001
0000
1000
0000
0001
0000
0100
0000
0010
0000
0100
0000
,
0010
0M10
0001
0100
010M
1000
0001
0000
0001
1000
0010
0100
,
0010
0000
0M10
0000
0001
0000
0100
0000
010M
0000
1000
0001
1000
0000
0001
0000
1000
0000
0001
0000
0001
0000
0001
0000
,
0100
0000
010M
0000
1000
0000
0010
0000
M010
0000
0001
0000
1000
0000
0001
0000
1000
0000
0001
0000
1000
0001
1000
0000
,
0010
0000
M010
0000
0001
0000
0100
0000
010M
0000
1000
0001
1000
0000
0010
0000
1000
0000
0001
0000
0100
0000
0001
1000
,
0001
0000
0010
0000
0001
0000
0010
0000
0100
0000
1000
0000
0001
0000
0000
0000
0001
0000
1000
0000
0001
0100
0001
0100
,
0010
0000
1010
0000
0110
0000
0101
001M
,
2200
3300
0001
0000
0100
0000
0001
0000
0100
0000
0000
0000
0001
0000
0100
0000
0000
0000
0000
0000
0000
0000
0000
0000
0000
0000
0000
0000
0000
0000
0000
0000
,
1000
0000
0100
0000
1000
0000
0100
0000
1000
0000
0000
0000
0100
0000
1000
0000
0001
0000
0100
0000
0010
0000
1000
0000
0001
0000
0100
0000
0022
0033
0000
0000
,
2200
3300
0001
0000
0100
0000
0001
0000
0100
0000
0000
0000
0001
0000
0100
0000
0000
0000
0000
0000
0000
0000
0000
0000
0000
0000
0000
0000
0000
0000
0000
0000
,
1000
0000
0100
0000
1000
0000
0100
0000
1000
0000
0000
0000
0100
0000
1000
0000
0001
0000
0010
0000
0100
0000
1000
0000
0001
0000
0010
0000
0202
0303
0000
0000
,
2020
3030
0001
0000
0010
0000
0001
0000
0010
0000
0000
0000
0001
0000
0010
0000
0000
0000
0000
0000
0000
0000
0000
0000
0000
0000
0000
0000
0000
0000
0000
0000
,
1000
0000
0010
0000
1000
0000
0010
0000
1000
0000
0000
0000
0010
0000
1000
0000
0001
0000
0010
0000
0100
0000
1000
0000
0001
0000
0010
0000
0202
0303
0000
0000
,
2020
3030
0001
0000
0010
0000
0001
0000
0010
0000
0000
0000
0001
0000
0010
0000
0000
0000
0000
0000
0000
0000
0000
0000
0000
0000
0000
0000
0000
0000
0000
0000
,
0001
0010
0001
0010
0001
0000
0010
0001
1000
0100
0010
0001
1000
0010
1000
0000
,
0022
0033
0000
0000
0000
0000
0000
0000
0000
0000
0000
0000
0000
0000
0000
0000
0000
0000
0000
0000
0000
0000
0000
0000
0000
0000
0000
0000
0000
0000
0000
0000
,
1000
0000
0001
0000
1000
0000
0001
0000
1000
0000
0001
0000
1000
0000
0001
0000
1000
0000
0001
0000
1000
0000
0001
0000
1000
0000
0001
0000
2020
3030
0001
0000
,
2020
3030
0000
0000
0000
0000
0000
0000
0000
0000
0000
0000
0000
0000
0000
0000
0000
0000
0000
0000
0000
0000
0000
0000
0000
0000
0000
0000
0000
0000
0000
0000
,
2M22
0000
0000
0000
3033
0000
0000
0000
22M2
0000
0000
0000
3303
0000
0000
0000
222M
0000
0000
0000
3330
0000
0000
0000
0022
0033
2200
3300
0022
0033
2200
3300
,
0022
0033
0000
0000
1000
0000
0000
0000
0000
0000
0010
0000
0000
0000
0000
0000
0100
0000
0000
0000
0000
0000
0001
0000
0000
0000
1000
0000
0001
0000
1000
0000
,
0000
0000
0100
0000
0000
1000
0000
0000
0001
0000
0000
0010
0000
0100
0010
0100
,
0000
0000
1000
0000
0000
0010
0000
0000
0100
0000
0000
0001
0000
1000
0001
1000
,
0002
0000
0100
0000
0000
0010
0000
0000
1000
0000
0000
0103
0010
0000
0110
0000
,
0010
0100
0001
1000
0001
0100
0010
0100
0001
1000
0001
0100
0010
1000
0100
0010
,
0001
1000
0001
0100
0010
0100
0001
1000
0001
0100
0010
0100
0001
1000
0100
0010
,
0001
1000
0100
0010
0100
1000
0001
1000
0100
0010
0100
1000
0001
0010
0100
1000
,
0100
0000
0010
0000
0100
0000
1000
0000
0001
0000
1000
0000
0100
0000
0010
0000
0100
0000
1000
0000
0001
0000
1000
0000
0020
0030
0200
0300
0020
0030
0200
0300
,
0020
0030
0100
0000
0001
0000
1000
0000
0001
0000
0100
0000
0010
0000
0100
0000
0001
0000
1000
0000
0001
0000
0100
0000
0010
0000
1000
0000
0100
0000
0010
0000
,
0001
0000
0100
0000
0010
0000
0100
0000
0001
0000
1000
0000
0010
0000
1000
0000
0001
0000
0100
0000
0010
0000
0100
0000
0002
0003
2000
3000
0002
0003
2000
3000
,
0002
0003
1000
0000
0001
0000
0010
0000
0001
0000
0010
0000
0100
0000
1000
0000
0100
0000
0010
0000
0100
0000
1000
0000
0001
0000
0010
0000
0001
1000
0001
1000
,
0001
0000
0010
0000
0100
0000
1000
0000
0001
0000
1000
0000
0100
0000
0020
0030
0002
0003
1000
0000
0002
0003
1000
0000
0020
0030
0100
0000
0020
0030
0100
0000
,
0020
0030
0100
0000
0001
0000
1000
0000
0001
0000
0100
0000
0010
0000
0100
0000
0001
0000
1000
0000
0001
0000
0100
0000
0010
0000
1000
0000
0001
0000
0010
0000
,
0100
1000
0001
0100
0010
0100
0001
1000
0001
0100
0010
0100
0001
1000
0100
0010
,
0001
1000
0100
0010
0100
1000
0001
1000
0100
0010
0100
1000
0001
1000
0010
0100
,
0001
0000
0010
0000
0100
0000
1000
0000
0001
0000
1000
0000
0100
0000
0010
0000
0100
0000
1000
0000
0001
0000
1000
0000
0020
0030
0200
0300
0020
0030
0200
0300
,
0020
0030
0100
0000
0001
0000
1000
0000
0001
0000
0100
0000
0010
0000
0100
0000
0001
0000
1000
0000
0001
0000
0100
0000
0010
0000
1000
0000
0100
0000
0010
0000
,
0001
0000
0100
0000
0010
0000
0100
0000
0001
0000
1000
0000
0010
0000
1000
0000
0001
0000
0100
0000
0010
0000
0100
0000
0002
0003
2000
3000
0002
0003
2000
3000
,
0002
0003
1000
0000
0001
0000
0010
0000
0001
0000
0010
0000
0100
0000
1000
0000
0100
0000
0010
0000
0100
0000
1000
0000
0001
0000
0010
0000
0001
1000
0001
1000
,
0001
0000
0010
0000
0100
0000
1000
0000
0001
1000
0001
1000
0001
0000
0010
0000
0001
0000
1000
0000
0010
0000
0100
0000
0002
0003
2000
3000
0002
0003
2000
3000
,
0002
0003
0000
0000
0000
0000
0000
0000
0000
0000
0000
0000
0000
0000
0000
0000
0000
0000
0000
0000
0000
0000
0000
0000
0000
0000
0000
0000
0000
0000
0000
0000
,
0000
0000
0000
0000
,
0000
0000
0000
0000
,
0000
0000
0000
0000
;
