#VERSION:0.83;
#TITLE:Dam Dariram;
#SUBTITLE:(D.T.C. Remix);
#ARTIST:Dance Team Candy;
#TITLETRANSLIT:;
#SUBTITLETRANSLIT:;
#ARTISTTRANSLIT:;
#GENRE:;
#CREDIT:Elsa Walker;
#MUSIC:Dam Dariram (D.T.C. Remix).mp3;
#BANNER:Dam Dariram (D.T.C. Remix)_bn.png;
#BACKGROUND:Dam Dariram (D.T.C. Remix)_bg.png;
#CDTITLE:;
#SAMPLESTART:51.588;
#SAMPLELENGTH:12.851;
#SELECTABLE:YES;
#OFFSET:-0.389;
#BPMS:0.000=153.592
,220.000=156.000
,256.000=50.000
,257.000=154.000
;
#STOPS:165.000=0.661
,166.500=0.781
;
#BGCHANGES:;
#FGCHANGES:;

//--------------- dance-single - ----------------
#NOTEDATA:;
#STEPSTYPE:dance-single;
#DESCRIPTION:;
#DIFFICULTY:Challenge;
#METER:8;
#RADARVALUES:0,0,0,0,0;
#NOTES:
0000
0000
0000
0000
,
2002
0000
0000
3003
,
0220
0000
0000
0330
,
2200
0000
0000
3300
,
0022
0000
0000
0033
,
1000
0001
1000
0001
,
0100
1000
0100
1000
,
0001
1000
0001
1000
,
0100
0001
0100
0001
,
1000
0001
1000
0010
0100
0001
0010
0001
,
0010
0100
1000
0010
0100
0010
1000
0100
,
0010
0001
0100
0010
1000
0100
1000
0010
,
0100
0001
0010
0100
1000
0010
0100
0001
,
0010
0100
1000
0100
0010
0001
1000
0001
,
0010
0001
0100
0010
1000
0100
1000
0001
,
0010
0001
0010
0100
1000
0001
0010
0100
,
1000
0010
1000
0100
0010
0001
0010
0100
,
2000
0000
0000
0000
3000
0010
1000
0002
,
0000
0010
0000
1000
0000
0100
0003
0020
,
0000
0000
0000
0000
0030
0001
1000
0200
,
0000
0000
0000
0300
0001
0100
1000
0200
,
0000
0000
0000
0000
0000
0301
0100
0002
,
0000
0003
1000
0100
0000
0001
0100
0020
,
0000
0000
1000
0000
1000
0000
1000
0030
,
1000
0000
0000
1000
0000
0000
1000
0000
0000
0000
0001
0000
0000
0000
0000
0000
,
2002
0000
0000
0000
3003
0010
0100
0010
,
0000
1000
0000
0100
0000
0010
0000
0001
,
1000
0000
1000
0000
0001
0100
1000
0200
,
0000
0000
0000
0300
0000
0100
1000
0000
,
1100
0000
1100
0000
1000
0100
1000
0000
,
0011
0000
0011
0000
0001
0010
0001
0000
,
0001
0100
1000
0100
0001
0100
1000
0100
,
1000
0000
0001
0000
1000
0000
0001
0000
1000
0001
1000
0001
1000
0000
0000
0000
,
0100
1000
0010
1000
0010
1000
0100
0010
,
0100
0010
0001
0100
0010
0100
0010
1000
,
0001
1000
0001
1000
0100
0010
0001
0100
,
0010
1000
0010
1000
0010
0100
0001
0100
,
0010
1000
0001
0010
0001
0100
0001
1000
,
0010
1000
0100
1000
0010
0100
0010
1000
,
0100
1000
0010
1000
0010
0100
0010
0100
,
0001
1000
0010
1000
0000
0001
0000
0000
,
1001
0000
0000
0000
1100
0000
0000
1001
0000
0000
0101
0000
0001
0000
1000
0000
,
0100
1000
0100
1000
0001
0010
0001
0010
,
0001
1000
0001
1000
0001
0100
0010
0000
,
0220
0000
0000
0000
0000
0000
0000
0330
,
2002
0000
0000
3003
1000
0100
0000
0010
,
0000
0022
0000
0000
0000
0000
0000
0033
,
1001
0000
0000
1100
0000
0000
1000
0000
1000
0000
1000
0000
0001
0000
0001
0000
,
2000
0000
0000
0000
0000
0000
0000
0000
0000
0000
0000
0000
0000
0000
0000
0000
0000
0000
0000
0000
0000
0000
0000
0000
0000
0000
0000
0000
0000
0000
0000
0000
0000
0000
0000
0000
0000
3000
0000
0000
0000
0000
0000
0000
0000
0000
0000
0000
0100
0000
0000
0000
0000
0000
0000
0000
0000
0000
0000
0000
0000
0000
0000
0000
0000
0000
0000
0000
0000
0000
0000
0000
0010
0000
0000
0000
0000
0000
0000
0000
0000
0000
0000
0000
0000
0000
0000
0000
0000
0000
0000
0000
0000
0000
0000
0000
0002
0000
0000
0000
0000
0000
0000
0000
0000
0000
0000
0000
0000
0000
0000
0000
0000
0000
0000
0000
0000
0000
0000
0000
0000
0000
0000
0000
0000
0000
0000
0000
0000
0000
0003
0000
0000
0000
0000
0000
0000
0000
0000
0000
0000
0000
0000
0000
0010
0000
0000
0000
0000
0000
0000
0000
0000
0000
0000
0000
0000
0000
0000
0000
0000
0000
0000
0000
0000
0000
0000
0000
0100
0000
0000
0000
0000
0000
0000
0000
0000
0000
0000
0000
0000
0000
0000
0000
0000
0000
0000
0000
0000
0000
0000
0000
,
2000
3000
0100
0010
0001
0100
0010
1000
,
0101
0000
0001
0010
0100
1000
0000
2002
,
0000
0000
0000
0000
3003
0001
1000
1000
,
0002
0000
0000
0000
0000
0000
0000
0000
0000
0000
0000
0000
0000
0000
0000
0000
0000
0000
0000
0000
0000
0000
0000
0000
0000
0000
0000
0000
0000
0000
0000
0000
0000
0000
0000
0000
0000
0003
0000
0000
0000
0000
0000
0000
0000
0000
0000
0000
0100
0000
0000
0000
0000
0000
0000
0000
0000
0000
0000
0000
0000
0000
0000
0000
0000
0000
0000
0000
0000
0000
0000
0000
0010
0000
0000
0000
0000
0000
0000
0000
0000
0000
0000
0000
0000
0000
0000
0000
0000
0000
0000
0000
0000
0000
0000
0000
2000
0000
0000
0000
0000
0000
0000
0000
0000
0000
0000
0000
0000
0000
0000
0000
0000
0000
0000
0000
0000
0000
0000
0000
0000
0000
0000
0000
0000
0000
0000
0000
0000
0000
3000
0000
0000
0000
0000
0000
0000
0000
0000
0000
0000
0000
0000
0000
0010
0000
0000
0000
0000
0000
0000
0000
0000
0000
0000
0000
0000
0000
0000
0000
0000
0000
0000
0000
0000
0000
0000
0000
0100
0000
0000
0000
0000
0000
0000
0000
0000
0000
0000
0000
0000
0000
0000
0000
0000
0000
0000
0000
0000
0000
0000
0000
,
0002
0003
0100
0010
1000
0100
0010
0001
,
1100
0000
1000
0010
0100
0001
0000
2002
,
0000
3003
1000
0000
0001
1000
0000
1001
,
0000
0000
0001
0000
1000
0000
0010
0000
0000
1000
0000
0000
0100
0000
0010
0000
,
0001
0000
0000
0010
0000
0000
0100
0000
0000
1000
0000
0000
0100
0000
1000
0000
,
0010
0000
0000
0100
0000
0000
0010
0000
0000
0001
0000
0000
1000
0000
0100
0000
,
0010
0000
0000
0100
0000
0000
0010
0000
0000
0100
0000
0000
0010
0000
1000
0000
,
0000
0000
1000
0000
0001
0000
0100
0000
0000
0001
0000
0000
0010
0000
0100
0000
,
1000
0000
0000
0100
0000
0000
0010
0000
0000
0001
0000
0000
0010
0000
0001
0000
,
0100
0000
0000
0010
0000
0000
0100
0000
0000
1000
0000
0000
0001
0000
0010
0000
,
0100
0000
0000
0010
0000
0000
0100
0000
0000
0010
0000
0000
0100
0000
0001
0000
,
2002
0000
0000
3003
0220
0000
0000
0330
0001
0000
1000
0000
0001
0000
0010
0000
,
0001
0100
0001
1000
0010
1000
0001
1000
,
0010
1000
0001
1000
0010
1000
0001
1000
,
0100
0000
1000
0000
0000
0000
0000
0000
1000
0001
1000
0001
1000
0000
0001
1000
,
0001
1000
0001
0000
1000
0001
1000
0001
2000
0000
0000
0000
0001
0000
0000
0000
,
0001
0001
0001
0001
,
0001
3002
1000
0010
,
1000
0010
2003
0100
,
0001
0100
3200
0010
,
0001
0000
0000
0000
0010
0000
0000
0000
0310
0000
0000
0010
0000
0000
0100
0000
,
0010
0100
0010
0100
0010
0100
0010
0000
2002
0000
0000
0000
0000
0000
0000
3003
,
0000
0000
0100
0000
0010
0000
1000
0000
0001
0000
0000
0001
0000
0000
0001
0000
,
0000
0010
0100
0100
1000
0001
1000
0001
,
1000
0001
1000
0002
0000
0000
0000
0000
,
0000
0000
0000
0000
0000
0000
0000
0000
0000
0000
0000
0000
0000
0003
0000
0000
;
