#TITLE:doll;
#SUBTITLE:;
#ARTIST:Baby V.O.X.;
#TITLETRANSLIT:;
#SUBTITLETRANSLIT:;
#ARTISTTRANSLIT:;
#GENRE:;
#CREDIT:locuuraa;
#LYRICSPATH:;
#MUSIC:doll.ogg;
#OFFSET:2.920;
#SAMPLESTART:11.080;
#SAMPLELENGTH:12.000;
#SELECTABLE:YES;
#BPMS:0.000=136.010;
#STOPS:;
#KEYSOUNDS:;
#BANNER:doll.png;
#BACKGROUND:doll.png;
#CDTITLE:../CDTitles/4DSS.png;
#BGCHANGES:-14.700=doll.avi=1.000=0=0=1,
229.000=doll.png=1.000=0=0=1,
99999=-nosongbg-=1.000=0=0=0
;
#NOTES:
     ds3ddx-single:
     Hard:
     Medium:
     4:
     :
00000000
00000000
00000000
00000000
,
00000000
00000000
00000000
00000000
00000000
00000000
00000010
01000000
,
00000010
11000011
00000000
00000000
,
00000000
00000000
00000000
00000000
,
00000000
01000000
00000000
00000000
,
00000000
00110000
00000000
00110000
,
00000000
10000011
01000000
01010010
,
01000000
01000000
00000000
00000000
,
00000000
00000011
11000000
11000000
,
00110000
01000000
00000000
10000000
,
10000000
00000000
00000000
00000000
,
00000000
00000000
00000000
00000000
,
00000000
00000000
00000000
00000000
,
00000000
00000000
00000000
00000000
,
10000000
00100000
00000100
00100000
,
00000100
00000001
10000000
00001000
,
00010000
10100001
00100000
00010100
,
00110000
00000000
00000000
10100000
,
00000000
10100000
10100000
00100000
,
00000000
10100001
00000000
00000000
,
00000000
00000000
00100100
00100100
00100100
00000000
11000001
00000000
,
00000000
00000101
00000000
10100000
,
00000000
00100000
00000000
00000000
,
00000000
00010000
00000100
00100000
,
00000100
00100000
10100000
00000000
,
00000100
00100000
00000000
00000100
,
00000000
00000100
00000001
00000000
,
10000000
00000100
00100000
00000100
,
00100000
00000100
00100000
00000100
,
00100100
00000001
00000000
00010000
,
00010000
00100000
00000000
00000000
,
00000000
00000100
00000000
00000000
,
00000000
00110100
00000000
00000000
,
00000000
00000000
00000000
00000000
00000000
00000000
00000100
00100000
,
00000100
10100101
00000000
00000000
,
00000000
10000001
00000000
00000000
,
00000000
00000100
00100000
00010000
,
00000000
10110000
00000000
00000000
,
00000000
10000000
00000000
00100000
,
00000000
00010000
00000000
00000100
,
00000000
00110000
00000000
00000100
,
00000100
00000010
00000000
00000000
,
00000000
00000000
00000000
00000000
,
00000000
10000011
00000000
00000100
,
00000000
00100000
00000000
00000100
,
00000000
10000001
00000000
01000000
,
00000000
01000000
00000010
01000000
,
01000000
11000001
01000000
11000001
,
00000000
01000000
01000000
11000001
,
00000000
11000001
00000010
11000001
,
00000010
01000000
00000000
01000000
,
00000000
10000101
00010010
00010000
,
00000100
00000000
00000100
00000000
,
00000100
00000101
10100000
10000001
,
00000000
00000000
00000000
00100000
,
00000000
00010000
00000100
00100000
,
00000100
00100000
10100000
00000000
,
00000100
00100000
00000000
00000100
,
00000000
00000100
00000001
00000000
,
10000000
00000100
00100000
00000100
,
00100000
00000100
00100000
00000100
,
00100100
00000001
00000000
00010000
,
00010000
00100000
00000000
00000000
,
00000000
00000100
00000000
00100000
,
00000000
01001000
00000000
00000000
;
#NOTES:
     ds3ddx-single:
     Easy:
     Easy:
     3:
     :
00000000
00000000
00000000
00000000
,
00000000
00000000
00000000
00000000
00000000
00000000
00000010
01000000
,
00000010
11000011
00000000
00000000
,
00000000
00000000
00000000
00000000
,
00000000
01000000
00000000
00000000
,
00000000
00010000
00000000
00010000
,
00000000
10000001
00000000
00010000
,
01000000
01000000
00000000
00000000
,
00000000
00000010
01000000
01000000
,
00000000
01000000
00000000
10000000
,
10000000
00000000
00000000
00000000
,
00000000
00000000
00000000
00000000
,
00000000
00000000
00000000
00000000
,
00000000
00000000
00000000
00000000
,
00000000
00100000
00000100
00100000
,
00000100
00000000
10000000
00000000
,
00010000
10000001
00100000
00000100
,
00100000
00000000
00000000
00100000
,
00000000
00100000
00100000
00100000
,
00000000
10000001
00000000
00000000
,
00000000
00100100
00000000
01000001
,
00000000
00000101
00000000
10100000
,
00000000
00100000
00000000
00000000
,
00000000
00010000
00000100
00100000
,
00000100
00000000
10100000
00000000
,
00000100
00100000
00000000
00000100
,
00000000
00000100
00000001
00000000
,
10000000
00000100
00000000
00000100
,
00100000
00000100
00000000
00000100
,
00100100
00000001
00000000
00000000
,
00010000
00100000
00000000
00000000
,
00000000
00000100
00000000
00000000
,
00000000
00100100
00000000
00000000
,
00000000
00000000
00000000
00000000
,
00000000
00100100
00000000
00000000
,
00000000
10000001
00000000
00000000
,
00000000
00000100
00100000
00010000
,
00000000
00010000
00000000
00000000
,
00000000
10000000
00000000
00100000
,
00000000
00010000
00000000
00000100
,
00000000
00100000
00000000
00000100
,
00000000
00000010
00000000
00000000
,
00000000
00000000
00000000
00000000
,
00000000
10000001
00000000
00000100
,
00000000
00100000
00000000
00000100
,
00000000
00000001
00000000
01000000
,
00000000
00000000
00000010
01000000
,
00000000
01000000
00000000
00000001
,
00000000
01000000
00000000
10000000
,
00000000
01000000
00000000
01000000
,
00000010
01000000
00000000
00000000
,
00000000
00000100
00000000
00010000
,
00000000
00000000
00000100
00000000
,
00000100
00000000
00000000
10000001
,
00000000
00000000
00000000
00100000
,
00000000
00010000
00000100
00000000
,
00000100
00000000
10100000
00000000
,
00000100
00100000
00000000
00000100
,
00000000
00000100
00000000
00000000
,
10000000
00000000
00100000
00000100
,
00000000
00000100
00000000
00000000
,
00100100
00000000
00000000
00010000
,
00000000
00100000
00000000
00000000
,
00000000
00000100
00000000
00100000
,
00000000
01001000
00000000
00000000
;
#NOTES:
     ds3ddx-double:
     Club:
     Easy:
     4:
     :
0000000000000000
0000000000000000
0000000000000000
0000000000000000
,
0000000000000000
0000000000000000
0000000000000000
0000000000000000
0000000000000000
0000000000000000
0000001000000000
0100000000000000
,
0000001000000000
1100001100000000
0000000000000000
0000000000000000
,
0000000000000000
0000000000000000
0000000000000000
0000000000000000
,
0000000000000000
0000000001000000
0000000000000000
0000000000000000
,
0000000000000000
0000000000110000
0000000000000000
0000000000110000
,
0000000000000000
0000000010000011
0000000001000000
0000000001010010
,
0000000001000000
0000000001000000
0000000000000000
0000000000000000
,
0000000000000000
0000001100000000
1100000000000000
1100000000000000
,
0011000000000000
0100000000000000
0000000000000000
1000000000000000
,
1000000000000000
0000000000000000
0000000000000000
0000000000000000
,
0000000000000000
0000000000000000
0000000000000000
0000000000000000
,
0000000000000000
0000000000000000
0000000000000000
0000000000000000
,
0000000000000000
0000000000000000
0000000000000000
0000000000000000
,
0000000010000000
0000000000100100
0000000000000100
0000000000100000
,
0000000000000100
0000000000000001
0000000010000000
0000000000001000
,
0000000000010000
0000000010100001
0000000000100000
0000000000010100
,
0001010000000000
0000000000000000
0000000000000000
1010000000000000
,
0000000000000000
1010000000000000
1010000000000000
0010000000000000
,
0000000000000000
1010000100000000
0000000000000000
0000000000000000
,
0000000000000000
0000000000000000
0010010000000000
0010010000000000
0010010000000000
0000000000000000
1100000100000000
0000000000000000
,
0000000000000000
0000010100000000
0000000000000000
0000000000110000
,
0000000000000000
0000000000000100
0000000000000000
0000000000000000
,
0000000000000000
0000000000010100
0000000000000100
0000000000100000
,
0000000000000100
0000000000100000
0000000010100000
0000000000000000
,
0000000000000100
0000000000100000
0000000000000000
0000000000000100
,
0000000000000000
0000010000000000
0000000100000000
0000000000000000
,
1000000000000000
0000010000000000
0010000000000000
0000010000000000
,
0010000000000000
0000010000000000
0010000000000000
0000010000000000
,
0010010000000000
0000000100000000
0000000000000000
0001000000000000
,
0001000000000000
0010000000000000
0000000000000000
0000000000000000
,
0000000000000000
0000000000000100
0000000000000000
0000000000000000
,
0000000000000000
0000000000110100
0000000000000000
0000000000000000
,
0000000000000000
0000000000000000
0000000000000000
0000000000000000
0000000000000000
0000000000000000
0000000000000100
0000000000100000
,
0000000000000100
0000000010100101
0000000000000000
0000000000000000
,
0000000000000000
0000000010000001
0000000000000000
0000000000000000
,
0000000000000000
0000010000000000
0010000000000000
0001000000000000
,
0000000000000000
1011000000000000
0000000000000000
0000000000000000
,
0000000000000000
0000000010000000
0000000000000000
0000000000100000
,
0000000000000000
0000000000010000
0000000000000000
0000000000000100
,
0000000000000000
0000000000110000
0000000000000000
0000000000000100
,
0000000000000100
0000000000000010
0000000000000000
0000000000000000
,
0000000000000000
0000000000000000
0000000000000000
0000000000000000
,
0000000000000000
1000001100000000
0000000000000000
0000010000000000
,
0000000000000000
0010000000000000
0000000000000000
0000010000000000
,
0000000000000000
1000000100000000
0000000000000000
0100000000000000
,
0000000000000000
0100000000000000
0000001000000000
0000000000100000
,
0000000000100100
0000000011000001
0000000001000000
0000000011000001
,
0000000000000000
0000000001000000
0000000001000000
0000000011000001
,
0000000000000000
0000000011000001
0000000000000010
0000000011000001
,
0000000000000010
0000000001000000
0000000000000000
0000010000000000
,
0000000000000000
1000010100000000
0001001000000000
0001000000000000
,
0000010000000000
0000000000000000
0000010000000000
0000000000000000
,
0000010000000000
0000010100000000
1010000000000000
0000000100000000
,
0000000000000000
0000000000000000
0000000000000000
0000000000100000
,
0000000000000000
0000000000010000
0000000000000100
0000000000100000
,
0000000000000100
0000000000100000
0000000000100000
0000000000000000
,
0000000000000100
0000000000100000
0000000000000000
0000000000000100
,
0000000000000000
0000000000000100
0000000000000001
0000000000000000
,
0001000000000000
0000010000000000
0010000000000000
0000010000000000
,
0010000000000000
0000010000000000
0010000000000000
0000010000000000
,
0010000000000000
0000000100000000
0000000000000000
0000000000010000
,
0000000000010000
0000000000100000
0000000000000000
0000000000000000
,
0000000000000000
0000000000000100
0000000000000000
0000000000100000
,
0000000000000000
0000000001001000
0000000000000000
0000000000000000
;
