#TITLE:crystal;
#SUBTITLE:;
#ARTIST:M.I.L.K.;
#TITLETRANSLIT:;
#SUBTITLETRANSLIT:;
#ARTISTTRANSLIT:;
#GENRE:;
#CREDIT:locuuraa;
#LYRICSPATH:;
#MUSIC:crystal.ogg;
#OFFSET:2.000;
#SAMPLESTART:11.140;
#SAMPLELENGTH:12.000;
#SELECTABLE:YES;
#BPMS:0.000=104.990;
#STOPS:;
#KEYSOUNDS:;
#BANNER:crystal.png;
#BACKGROUND:crystal.png;
#CDTITLE:../CDTitles/4DSS.png;
#BGCHANGES:-14.700=crystal.avi=1.000=0=0=1,
229.000=crystal.png=1.000=0=0=1,
99999=-nosongbg-=1.000=0=0=0
;
#NOTES:
     ds3ddx-single:
     Hard:
     Medium:
     5:
     :
00000000
00000000
00000000
00000000
,
00000000
00000000
00000000
01000000
,
00000100
00100000
00010000
00000000
,
00000100
00100000
00000100
00000101
,
00000100
10100000
00100000
10000011
,
01000000
00000010
01000000
00100001
,
10000100
10100001
00010100
00010000
,
00000000
00000000
00000000
01011100
,
10100011
00000000
00010000
00000000
00100000
00000000
00100000
00100000
,
00000100
00010100
00100000
00000000
,
00000000
00000000
00100000
00000100
,
00000010
00100000
00000100
00100100
,
00000000
00010000
00000000
00000000
,
00000001
00000001
10100000
00000000
00100000
00000000
00100000
00000000
,
00000101
10000000
00010000
10000001
00010000
00000000
00000100
00000000
,
00000000
00000000
00000000
00000000
,
00100000
00000000
00100000
00000101
10000000
00000000
00000101
00000000
,
10100000
01010000
01000000
00000011
,
11000000
00000001
01000000
01000000
,
00110000
00000000
01000000
01000000
01000010
00000000
00000010
00000000
,
01000000
00000010
01000000
00000011
,
01000000
00000011
01000000
00000010
,
00000000
01010000
00000000
00100000
,
01000000
00000000
00100000
00000100
00100000
00000000
00000101
10100000
,
00000010
00000000
00000011
00000001
01000010
00000000
00010000
00000000
,
00000001
00000000
00000010
00000100
,
00000000
00000100
00000100
00000101
,
00000101
00000101
00000101
10000011
,
10000011
00000011
01000000
00000010
,
01000000
00000010
01000000
00000100
,
00000010
00000000
01000000
10000001
00000000
00000000
00000010
00000000
,
00000100
00000000
00100000
10000001
00000000
00000000
10100001
00000000
,
01000000
10000001
01000000
00000100
,
00100000
00000000
00110000
10000000
00000000
00000000
00000100
00000000
,
00000000
00000000
00000000
00000000
,
00000000
00000000
00000000
00000000
00000000
00000000
00010000
00000001
,
00000000
00000000
00010000
10000000
00000000
00000000
00000100
00000000
,
00000001
00100000
10000000
00100000
,
00000100
00000000
00100000
10000001
00000100
00000000
00110000
00000000
,
00000000
00100000
00100000
01000000
,
01000000
01000000
00000000
01000000
,
00000000
01000000
00000000
01000000
,
00000100
00100000
00010000
00000000
,
00000100
00100000
00000100
00000101
,
00000100
10100000
00100000
10000011
,
01000000
00000010
01000000
00100001
,
10000100
10100001
00010100
00010000
,
00000000
00000000
00000000
01011100
,
10100011
00000000
00010000
00000000
00100000
00000000
00100000
00100000
,
00000100
00010100
00100000
00110000
;
#NOTES:
     ds3ddx-double:
     Club:
     Easy:
     5:
     :
0000000000000000
0000000000000000
0000000000000000
0000000000000000
,
0000000000000000
0000000000000000
0000000000000000
0000000000000000
,
0000000000000000
0100000000000000
0000010000000000
0010000000000000
,
0001000000000000
0000000000000000
0000010000000000
0010000000000000
,
0000010000000000
0000001000000000
0000000000100000
0000000001000000
,
0000000000000010
0000000010000011
0000000001000000
0000000000000010
,
0000000001000000
0000000000100001
0000000010000100
0000000010100001
,
0000000000010100
0000000000010000
0000000000100000
0000000001000000
,
0000010000000000
0101110000000000
1010001100000000
0001000000000000
,
0010000000000000
0000000000000000
0010000000000000
0010000000000000
0000010000000000
0000000000000000
0001010000000000
0000000000000000
,
0010000000000000
0000000000000000
0000000000000000
0000000000000000
,
0000000000100000
0000000000000100
0000000000000010
0000000000100000
,
0000000000000100
0000000000100100
0000000000000000
0000000000010000
,
0000000000000000
0000000000000000
0000000000000000
0000000000000000
0000000100000000
0000000100000000
1010000000000000
0000000000000000
,
0010000000000000
0000000000000000
0010000000000000
0000000000000000
0000010100000000
1000000000000000
0001000000000000
1000000100000000
,
0001000000000000
0000010000000000
0000000000000000
0000000000000000
,
0000000000000000
0000000000000000
0000000000000000
0000000000000000
0000000000100000
0000000000000000
0000010000000000
0000000000100000
,
0001000000000000
0000000001000000
0000010000000000
0000000001000000
,
0000000000100000
0000000000000100
0000000011000000
0000000000000001
,
0000000001000000
0000000000000000
0000000001000000
0000000000000000
0000000000110000
0000000000000000
0000000001000000
0000000001000000
,
0000000001000010
0000000000000010
0000000001000000
0000000000100000
,
0000001000000000
0000010000000000
0000000001000000
0000010000000000
,
0000001000000000
0100000000000000
0000000000000000
0101000000000000
,
0000000000000000
0000000000000000
0010000000000000
0000000000000000
0100000000000000
0000000000000000
0010000000000000
0000010000000000
,
0010000000000000
0000000000000000
0000010100000000
1010000000000000
0000001000000000
0000000000000000
0000001100000000
0000000100000000
,
0100001000000000
0001000000000000
0000000000010000
0000000000000000
,
0000000000100000
0000000000000100
0000000000000000
0000000000000100
,
0000000000000100
0000000000000101
0000000000000101
0000000000000101
,
0000000000000101
0000000010000011
0000000010000011
0000000000000011
,
0000000001000000
0000000001000000
0000000000100000
0000010000000000
,
0000001000000000
0000000000000000
0100000000000000
0000000000000000
0000001000000000
0000000000000000
0100000000000000
1000000100000000
,
0000000000000000
0000000000000000
0000001000000000
0000000000000000
0000010000000000
0000000000000000
0010000000000000
1000000100000000
,
0000000000000000
1010000100000000
0100000000000000
0000010000000000
,
0000001000000000
0000000000000000
0000000000100000
0000000000000000
0000001000000000
0000000000000000
0000000000000000
1000000000000000
,
0000000000000000
0000010000000000
0000000000000000
0000000000000000
,
0000000000000000
0000000000000000
0000000000000000
0000000000000000
,
0000000000000000
0000000000000000
0001000000000000
0000000100000000
0000000000000000
0000000000000000
0001000000000000
1000000000000000
,
0000000000000000
0000010000000000
0000000100000000
0010000000000000
,
1000000000000000
0000000000000000
0010000000000000
0000000000000000
0000010000000000
0000000000000000
0010000000000000
1000000100000000
,
0000010000000000
0011000000000000
0000000000000000
0000010000000000
,
0000010000000000
0000001000000000
0000000000100000
0000000001000000
,
0000000000000000
0000000001000000
0000000000000000
0000000000000010
,
0000000000000000
0000000000000010
0000000000000100
0000000000100000
,
0000000000010000
0000000000000000
0000000000000100
0000000000100000
,
0000000000000100
0000000000000101
0000000000000100
0000000010100000
,
0000001000000000
0000000000100000
0000001000000000
0010000000000000
,
0000001000000000
0010000100000000
1000010000000000
1010000100000000
,
0001010000000000
0001000000000000
0000000000000000
0000000000000000
,
0000000000000000
0000000001011100
0000000010100011
0000000000010000
,
0000000000100000
0000000000000000
0000000000100000
0000000000100000
0000000000000100
0000000000000000
0000000000010100
0000000000000000
,
0000000000100000
0000000000110000
0000000000000000
0000000000000000
;
#NOTES:
     ds3ddx-single:
     Easy:
     Easy:
     4:
     :
00000000
00000000
00000000
00000000
,
00000000
00000000
00000000
00000000
,
00000000
01000000
00000100
00100000
,
00010000
00000000
00000100
00100000
,
00000100
00000000
00000100
10100000
,
00000000
10000001
00000000
00000010
,
00000000
00100001
00000000
10000001
,
00010000
00000000
00000000
00000000
,
00000000
00000100
00000010
00010000
,
00100000
00000000
00000100
00000000
,
00100000
00000000
00000000
00000000
,
00100000
00000000
00000010
00100000
,
00000000
00100100
00000000
00010000
,
00000000
00000000
00000001
00000000
,
00100000
00000000
00000100
00000000
,
00010000
00000100
00000000
00000000
,
00000000
00000000
00100000
00000000
,
10000000
00000000
00100000
00000000
,
01000000
00000011
00000000
00000001
,
00000000
01000000
00000000
01000000
,
00000010
00000010
01000000
00000010
,
01000000
00000011
01000000
00000011
,
01000000
00000010
00000000
01010000
,
00000000
00100000
00000000
00100000
,
00000000
00000100
00000000
00000000
,
01000010
00000000
00000001
00000000
,
00000010
00000000
00000000
00000100
,
00000000
00000101
00000000
00000100
,
00000000
10000001
00000000
00000001
,
01000000
00000010
01000000
00000010
,
01000000
00000100
00000010
01000000
,
00000000
00000010
00000000
00010000
,
00000000
10100000
00000000
10000001
,
00000000
00000100
00100000
00000000
,
00000000
00000100
00000000
00000000
,
00000000
00000000
00000000
00000000
,
00000000
00000000
00010000
00000001
00000000
00000000
00010000
10000000
,
00000000
00000100
00000001
00100000
,
10000000
00000000
00000100
00000000
,
00000100
00110000
00000000
00100000
,
00100000
01000000
00000000
01000000
,
00000000
01000000
00000000
01000000
,
00000000
01000000
00000100
00100000
,
00010000
00000000
00000100
00100000
,
00000100
00000001
00000100
00000000
,
00100000
00000001
01000000
00000010
,
01000000
00100001
00000000
00000000
,
00010100
00010000
00000000
00000000
,
00000000
00000100
00000000
00010000
,
00100000
00100000
00000100
00000000
,
00100000
00010000
00000000
00000000
;
