#TITLE:ZZangGa;
#SUBTITLE:;
#ARTIST:김건모;
#TITLETRANSLIT:;
#SUBTITLETRANSLIT:;
#ARTISTTRANSLIT:Kim Gun Mo;
#GENRE:;
#CREDIT:locuuraa;
#LYRICSPATH:;
#MUSIC:ZZangGa.ogg;
#OFFSET:1.640;
#SAMPLESTART:10.900;
#SAMPLELENGTH:12.000;
#SELECTABLE:YES;
#BPMS:0.000=107.970;
#STOPS:;
#KEYSOUNDS:;
#BANNER:ZZangGa.png;
#BACKGROUND:ZZangGa.png;
#CDTITLE:../CDTitles/4DSS.png;
#BGCHANGES:-14.700=ZZangGa.avi=1.000=0=0=1,
229.000=ZZangGa.png=1.000=0=0=1,
99999=-nosongbg-=1.000=0=0=0
;
#NOTES:
     ds3ddx-single:
     Hard:
     Medium:
     4:
     :
00000000
00000000
00000000
00000000
,
00000000
00000000
00000000
00000000
,
00000000
00000000
00000000
00000000
,
00000010
00000000
00000010
00000010
,
00000010
00000000
00000010
00000000
00000010
00000000
00000100
00100000
,
00000000
00000000
00000010
01000000
00000000
00000000
00000100
00100000
,
00000000
00100100
00000000
10000001
,
00000000
00000000
10100101
00010000
,
00010000
00010000
00010000
10100000
,
10100000
10100000
10000001
00000101
,
00000101
00000101
10000001
10100000
,
10100000
00000101
00000101
00110000
,
00110000
00010000
00010000
00000000
,
00000000
00000000
00000000
00000100
,
00000010
00000010
01000010
00000001
,
10000000
00000001
10000000
11000000
,
00100001
00010100
00010000
00000000
,
00000000
00000000
00000000
00100000
,
00100000
10000000
00000001
00100000
,
00000100
00000100
00000001
00000100
,
00000010
00000000
01000000
10000001
10000001
00000000
00100000
00000000
,
01000000
00100000
01000000
00000100
,
00000010
00000100
00000100
00010100
,
01000000
10000001
10000001
01000000
,
00000010
00000000
01000000
01000000
01000000
00000000
00100000
00000000
,
01000000
00100000
00100000
00000100
,
00100000
00000100
00000100
00100000
,
00100000
01000000
01000000
00000010
,
00000010
00000001
00000000
00000011
,
11000000
00000011
11000000
00000011
,
11000000
00000011
11000000
00010000
,
00000000
00000001
00000000
00000101
,
00000101
00000000
00010000
10000011
01000000
00000000
01000000
00000000
,
10000001
00000010
10000001
01000000
,
00000000
00000000
00000000
00010000
,
00010000
00010000
00010000
10010001
,
00010000
10010001
00010000
00000000
,
00000000
00000000
00000000
00000000
,
00000000
00000000
00000000
10000000
,
10000000
10000000
10000000
10011000
,
10000000
10011000
10000000
00000000
,
00000000
00000000
00000000
00000000
,
00000000
00000000
00000000
00000100
,
00000000
00100000
00000000
00010000
,
00010000
00010000
00010000
00000000
;
#NOTES:
     ds3ddx-single:
     Easy:
     Easy:
     2:
     :
00000000
00000000
00000000
00000000
,
00000000
00000000
00000000
00000000
,
00000000
00000000
00000000
00000000
,
00000010
00000000
00000010
00000000
,
00000010
00000000
00000000
00000000
00000010
00000000
00000000
00100000
,
00000000
00000000
00000010
01000000
00000000
00000000
00000100
00000000
,
00000000
00100100
00000000
10000001
,
00000000
00000000
00100100
00000000
,
00010000
00000000
00010000
00100000
,
00000000
10100000
00000000
00000101
,
00000000
00000100
00000000
00100000
,
00100000
00000100
00000100
00000000
,
00110000
00000000
00010000
00000000
,
00000000
00000000
00000000
00000100
,
00000010
00000000
01000010
00000000
,
10000000
00000000
10000000
00000000
,
00100001
00000000
00010000
00000000
,
00000000
00000000
00000000
00100000
,
00000000
10000000
00000001
00000000
,
00000100
00000100
00000000
00100000
,
00000000
01000000
00000000
00100000
,
00000000
00100000
00000010
00000000
,
01000000
00000100
00000000
00010100
,
00000000
10000001
00000000
01000000
,
00000010
00000000
01000000
00000000
,
01000000
00000000
00100000
00000000
,
00100000
00000000
00000100
00000000
,
00100000
00000000
01000000
00000000
,
00000010
00000000
00000000
00000001
,
10000000
00000000
01000000
00000010
,
00000000
00000011
01000000
00010000
,
00000000
00000001
00000000
00000100
,
00000100
00000000
00000000
01000000
,
00000000
00000010
00000000
01000000
,
00000000
00000000
00000000
00010000
,
00000000
00010000
00000000
10000001
,
00000000
00010000
00000000
00000000
,
00000000
00000000
00000000
00000000
,
00000000
00000000
00000000
10000000
,
00000000
10000000
00000000
10000000
,
00000000
10000000
10000000
00000000
,
00000000
00000000
00000000
00000000
,
00000000
00000000
00000000
00000100
,
00000000
00100000
00000000
00010000
,
00010000
00010000
00010000
00000000
;
#NOTES:
     ds3ddx-double:
     Club:
     Easy:
     4:
     :
0000000000000000
0000000000000000
0000000000000000
0000000000000000
,
0000000000000000
0000000000000000
0000000000000000
0000000000000000
,
0000000000000000
0000000000000000
0000000000000000
0000000000000000
,
0000001000000000
0000000000000000
0000001000000000
0000001000000000
,
0000001000000000
0000000000000000
0000001000000000
0000000000000000
0000001000000000
0000000000000000
0000010000000000
0010000000000000
,
0000000000000000
0000000000000000
0000001000000000
0100000000000000
0000000000000000
0000000000000000
0000010000000000
0010000000000000
,
0000000000000000
0010010000000000
0000000000000000
1000000100000000
,
0000000000000000
0000000000000000
0000000010100101
0000000000010000
,
0000000000010000
0000000000010000
0000000000010000
0000000010100000
,
0000000010100000
0000000010100000
0000000010000001
0000000000000101
,
0000000000000101
0000000000000101
0000000010000001
0000000010100000
,
0000000010100000
0001010000000000
0001010000000000
0011000000000000
,
0011000000000000
0001000000000000
0001000000000000
0000000000000000
,
0000000000000000
0000000000000000
0000000000000000
0000000000100000
,
0000000000000010
0000000000000010
0000000001000010
0000000000000001
,
0000000010000000
0000000000000001
0000000010000000
0000000011000000
,
0000000000100001
0000000000010100
0000000000010000
0000000000000000
,
0000000000000000
0000000000000000
0000000000000000
0010000000000000
,
0010000000000000
1000000000000000
0000000100000000
0010000000000000
,
0000010000000000
0000010000000000
0000000100000000
0000010000000000
,
0000001000000000
0000000000000000
0100000000000000
1000000100000000
1000000100000000
0000000000000000
0010000000000000
0000000000000000
,
0100000000000000
0010000000000000
0100000000000000
0000010000000000
,
0000001000000000
0000000000100000
0000000001000000
0000000000010100
,
0000000001000000
0000000010000001
0000000010000001
0000000001000000
,
0000000000000010
0000000000000000
0000000001000000
0000000001000000
0000000001000000
0000000000000000
0000000000100000
0000000000000000
,
0000000001000000
0000000000000100
0000000000000100
0000000000100000
,
0000010000000000
0000000001000000
0000001000000000
0010000000000000
,
0010000000000000
0100000000000000
0100000000000000
0000001000000000
,
0000001000000000
0000000100000000
0000000000000000
0000001100000000
,
1100000000000000
0000001100000000
1100000000000000
0000001100000000
,
1100000000000000
0000001100000000
1100000000000000
0001000000000000
,
0000000000000000
0000000000010000
0000000000000000
0000000000000101
,
0000000000000101
0000000000000000
0000000000010000
0000000010000011
0000000001000000
0000000000000000
0000000001000000
0000000000000000
,
0000000010000001
0000000000000010
0000000010000001
0000000001000000
,
0000000000000000
0000000000000000
0000000000000000
0001000000000000
,
0001000000000000
0001000000000000
0001000000000000
1001000100000000
,
0001000000000000
1001000100000000
0001000000000000
0000000000000000
,
0000000000000000
0000000000000000
0000000000000000
0000000000000000
,
0000000000000000
0000000000000000
0000000000000000
0000000010000000
,
0000000010000000
0000000010000000
0000000010000000
0000000010011000
,
0000000010000000
0000000010011000
0000000010000000
0000000000000000
,
0000000000000000
0000000000000000
0000000000000000
0000000000000000
,
0000000000000000
0000000000000000
0000000000000000
0000010000000000
,
0000000000000000
0010000000000000
0000000000000000
0001000000000000
,
0001000000000000
0001000000000000
0001000000000000
0000000000000000
;
