#TITLE:Without You;
#SUBTITLE:;
#ARTIST:Mariah Carey;
#TITLETRANSLIT:;
#SUBTITLETRANSLIT:;
#ARTISTTRANSLIT:;
#GENRE:;
#CREDIT:locuuraa;
#LYRICSPATH:;
#MUSIC:Without You.ogg;
#OFFSET:-0.180;
#SAMPLESTART:11.960;
#SAMPLELENGTH:12.000;
#SELECTABLE:YES;
#BPMS:0.000=139.900,66.000=70.000,112.000=139.900,115.000=139.900;
#STOPS:;
#KEYSOUNDS:;
#BANNER:Without You.png;
#BACKGROUND:Without You.png;
#CDTITLE:../CDTitles/4DSS.png;
#BGCHANGES:-14.700=Without You.avi=1.000=0=0=1,
229.000=Without You.png=1.000=0=0=1,
99999=-nosongbg-=1.000=0=0=0
;
#NOTES:
     ds3ddx-double:
     Club:
     Easy:
     6:
     :
0000000000000000
0000000000000000
0000010000000000
0010000000000000
0000010000000000
0000000000000000
0000000000100000
0000000000000000
,
0000000001000000
0000000000000000
0000000000000010
0000000001000000
0000000000000010
0000000000000000
0000000001000000
0000000000000000
,
0000000001000000
0000000000000000
0000010000000000
0000000000100000
0000010000000000
0000000000000000
0000001000000000
0000000000000000
,
0000001000000000
0000000000000000
0000000000000000
0000000000000000
0010000000000000
0000000000000000
0000010000000000
0000000000000000
0010000000000000
0000000000000000
0000000000000000
0000000000000000
0000000000000000
0000001000000000
0000001000000000
0000000000000000
,
0000000000000000
0000000000000000
0010000000000000
0000010000000000
0010000000000000
0000010000000000
0100000000000000
0000001000000000
,
0100000000000000
0000001000000000
0100000000000000
0000001000000000
0000010000000000
0000000000100000
0000000001000000
0000000000000010
,
0000000001000000
0000000000000100
0000000001000000
0000000000000100
0000000000000010
0000000000000100
0000000001000000
0000000000100000
,
0000010000000000
0000001000000000
0100000000000000
0000001000000000
0100000000000000
0010000000000000
0100000000000000
0000001000000000
,
0000010000000000
0000001000000000
0100000000000000
0000010000000000
0010000000000000
0000001000000000
0100000000000000
0000010000000000
,
0010000000000000
0000001000000000
0000010000000000
0000000000100000
0000010000000000
0000000000100000
0000001000000000
0000000001000000
,
0000001000000000
0000000001000000
0000000000100000
0000010000000000
0000001000000000
0100000000000000
0000010000000000
0100000000000000
,
0000010000000000
0010000000000000
0000001000000000
0100000000000000
0000001000000000
0010000000000000
0000010000000000
0000001000000000
,
0000000000100000
0000001000000000
0000010000000000
0000000001000000
0000000000100000
0000000001000000
0000000000000100
0000000000000010
,
0000000001000000
0000000000000010
0000000001000000
0000000000000100
0000000001000000
0000000000100000
0000000001000000
0000010000000000
,
0000001000000000
0100000000000000
0000010000000000
0100000000000000
0000010000000000
0010000000000000
0000001000000000
0100000000000000
,
0000001000000000
0010000000000000
0100000000000000
0010000000000000
0000001000000000
0000010000000000
0010000000000000
0000010000000000
,
0010000000000000
0000001000000000
0100000000000000
0000001000000000
0100000000000000
0000000000000000
0000000000000000
0000000000000000
,
0000000000000000
0000000000000000
0000000000000000
0000000000000000
0000000000000000
0000000000000000
0000000000000000
1100000000000000
,
0000000000000000
0000001100000000
0000000000000000
0000000000100000
0000000000000000
0000000000000101
0000000000010000
0000000010000000
,
0000000000000000
0000000100000000
0000000000000000
0001000000000000
0000000000000000
1000000000000000
0000000000000000
0000001100000000
,
0000000000000000
1100000000000000
0000000000000000
0010000000000000
0010000000000000
0000001000000000
0000001000000000
0000010000000000
,
0000010000000000
0000000000100000
0000000000100000
0000000001000000
0000000001000000
0000000000000010
0000000000000010
0000000001000000
,
0000000001000000
0000000000100000
0000010000000000
0000001000000000
0100000000000000
0010000000000000
0000001000000000
0000010000000000
,
0010000000000000
0100000000000000
0000001000000000
0010000000000000
0110000000000000
0000010000000000
0000011000000000
0000000000100000
,
0000000001100000
0000000000000000
0000000000000010
0000000001000000
0000000000000010
0000000001000000
0000000000000100
0000000000000000
0000000001000000
0000000000000000
0000010000000000
0000000000000000
0010000000000000
0000000000000000
0000001000000000
0000000000000000
,
0010000000000000
0010000000000000
0000010000000000
0000001000000000
0010000000000000
0000001000000000
0000010000000000
0000000000100000
,
0000000001000000
0000000000000010
0000000001000000
0000000000100000
0000010000000000
0010000000000000
0000001000000000
0100000000000000
,
0000010000000000
0000001000000000
0010000000000000
0100000000000000
0000001000000000
0100000000000000
0100001000000000
0000000000000000
,
0000000000000000
0000000000000000
0000000000000000
0000000000000000
0000000000000000
0000000000000000
0010000000000000
0100000000000000
,
0010000000000000
0100000000000000
0010000000000000
0100000000000000
0000010000000000
0000000000100000
0000010000000000
0000000000100000
,
0000001000000000
0000000001000000
0000001000000000
0000000001000000
0000000000000100
0000000001000000
0000000000000010
0000000001000000
,
0000000000000100
0000000001000000
0000000000000010
0000000001000000
0000000000100000
0000010000000000
0000001000000000
0000000001000000
,
0000001000000000
0000000000100000
0000010000000000
0000000001000000
0000001000000000
0000010000000000
0010000000000000
0000001000000000
,
0100000000000000
0000010000000000
0010000000000000
0000001000000000
0000010000000000
0000000000100000
0000000001000000
0000010000000000
,
0000000001000000
0000010000000000
0000000001000000
0000010000000000
0000001000000000
0000010000000000
0000000000100000
0000000001000000
,
0000000000000010
0000000000000100
0000000000000010
0000000000100000
0000000000000010
0000000000100000
0000000000000100
0000000000100000
,
0000001000000000
0000000001000000
0000010000000000
0000000000100000
0010000000000000
0000001000000000
0010000000000000
0100000000000000
,
0000010000000000
0000001000000000
0100000000000000
0000010000000000
0000001000000000
0010000000000000
0000001000000000
0010000000000000
,
0000001000000000
0100000000000000
0000001000000000
0010000000000000
0000001000000000
0000010000000000
0000000000100000
0000000001000000
,
0000000000100000
0000010000000000
0000001000000000
0000010000000000
0000000000100000
0000000001000000
0000000000000010
0000000001000000
,
0000000000100000
0000010000000000
0000001000000000
0100000000000000
0000001000000000
0000010000000000
0000000000100000
0000000001000000
,
0000010000000000
0000001000000000
0100000000000000
0000001000000000
0010000000000000
0000001000000000
0100000000000000
0000001000000000
,
0010000000000000
0000010000000000
0010000000000000
0000001000000000
0000010000000000
0000000000100000
0000000001000000
0000010000000000
,
0000001000000010
0000000000000100
0000000000100000
0000000001000000
0000001000000000
0000010000000000
0010000000000000
0100000000000000
,
0010000000000000
0000010000000000
0000001000000000
0000000001000000
0000000000100000
0000000000000100
0000000000000010
0000000000000000
;
#NOTES:
     ds3ddx-single:
     Hard:
     Medium:
     6:
     :
00000000
00000000
00000100
00100000
00000100
00000000
00000100
00000000
,
00000100
00000000
01000000
00000010
01000000
00000000
01000000
00000000
,
01000000
00000000
00000010
01000000
00000100
00100000
00000100
00000000
,
00000100
00000000
00000000
00000000
00100000
00000000
00000100
00000000
10100000
00000000
00000000
00000000
00000000
00000010
00000010
00000000
,
00000000
00000000
00100000
00000100
00100000
00000100
01000000
00000010
,
01000000
00000010
01000000
00000010
00000100
00000010
00000100
00000010
,
00000100
00000010
01000000
00100000
01000000
00000010
00000100
00000010
,
01000000
00000100
00100000
00000010
01000000
00100000
01000000
00000010
,
00000100
00000010
01000000
00000100
00100000
00000010
01000000
00000100
,
00100000
00000010
01000000
00100000
01000000
00100000
01000000
00100000
,
01000000
00000100
00000010
00000100
00000010
00000100
00000010
01000000
,
00000100
01000000
00000100
01000000
00000100
00100000
00000100
00000010
,
01000000
00000010
00000100
00100000
00000010
01000000
00000100
00100000
,
00000100
01000000
00000100
00100000
00000100
01000000
00000010
00100000
,
00000010
01000000
00000100
00000010
00000100
00100000
00000010
01000000
,
00000010
00100000
01000000
00100000
00000010
00000100
00100000
00000100
,
00100000
00000010
01000000
00000010
01000000
00000000
00000000
00000000
,
00000000
00000000
00000000
00000000
00000000
00000000
00000000
11000000
,
00000000
00000011
00000000
10100000
00000000
00000101
00010000
10000000
,
00000000
00010000
00000000
00000001
00000000
00010000
00000000
00000011
,
00000000
11000000
00000000
00100000
00100000
00100000
00100000
00100000
,
00100000
00000010
01000000
00000100
00000100
00000100
00000100
00000100
,
00000100
00100000
00100000
00000100
01000000
00100000
00000010
00000100
,
00100000
01000000
00000010
01000000
01100000
00000100
00000110
00010000
,
00000001
00000000
00100000
00000100
00100000
00000100
00010000
00000000
10100000
00000000
10100000
00000000
00000101
00000000
00000101
00000000
,
00100000
01000000
00000100
00000010
00100000
00000100
00000010
01000000
,
00100000
00100000
00000100
00000100
00100000
00110000
00000100
00000101
,
00100000
01100000
00000100
00000110
00100010
01000100
00100010
10000001
,
00000000
00000000
00000000
00000000
00000000
00000000
00100000
01000000
,
00100000
01000000
00100000
01000000
00000010
00000100
00000010
00000100
,
00000010
00000100
00100000
00000100
00100000
00000100
01000000
00000010
,
00000100
00100000
01000000
00000010
00000100
00000010
01000000
00100000
,
01000000
00000100
01000000
00000100
01000000
00100000
00000010
01000000
,
00000100
01000000
00000010
00000100
00000010
01000000
00100000
00000100
,
01000000
00000100
00000010
00100000
01000000
00000100
00000010
00000100
,
00000010
00000100
00100010
01000000
00100000
01000000
00100000
01000000
,
00000100
00000010
01000000
00100000
01000000
00000010
00000100
00100000
,
01000000
00000100
00000010
01000000
00000100
00100000
00000010
00100000
,
00000010
01000000
00000010
00100000
00000100
00000010
01000000
00000100
,
00100000
01000000
00100000
01000000
00100000
01000000
00000100
00000010
,
00000100
00000010
00000100
00000010
01000000
00000100
00000010
01000000
,
00000100
00100000
00000100
00100000
01000000
00000010
01000000
00000010
,
00100000
00000100
00000000
01000000
00000010
00100000
00000010
00000100
,
01000000
00000000
00000000
00000100
00000000
00000000
01000000
00000000
00000000
00000100
00000000
00000000
00000010
00000000
00000000
01000000
00000000
00000000
00000100
00000000
00000000
01000000
00000010
01000000
,
00000010
01000000
00000010
01000000
00000010
01000000
01000010
00000010
01000000
00000010
01000000
00000010
01000000
00000010
01000000
01000010
00000010
01000000
00000010
00000000
00000000
00000000
00000000
00000000
;
