#TITLE:We Will Rock You;
#SUBTITLE:;
#ARTIST:Let's Dance;
#TITLETRANSLIT:;
#SUBTITLETRANSLIT:;
#ARTISTTRANSLIT:;
#GENRE:;
#CREDIT:locuuraa;
#LYRICSPATH:;
#MUSIC:We Will Rock You.ogg;
#OFFSET:-0.180;
#SAMPLESTART:12.020;
#SAMPLELENGTH:12.000;
#SELECTABLE:YES;
#BPMS:0.000=180.000;
#STOPS:;
#KEYSOUNDS:;
#BANNER:We Will Rock You.png;
#BACKGROUND:We Will Rock You.png;
#CDTITLE:../CDTitles/4DSS.png;
#BGCHANGES:-14.700=We Will Rock You.avi=1.000=0=0=1,
229.000=We Will Rock You.png=1.000=0=0=1,
99999=-nosongbg-=1.000=0=0=0
;
#NOTES:
     ds3ddx-single:
     Hard:
     Medium:
     4:
     :
00000000
00000000
00000000
00000000
,
00000000
00000000
00000000
00000000
,
00000000
00000010
01000000
00000011
,
00000000
00000010
01000000
00010100
,
00000000
00100000
00000100
11000000
,
00000010
00000000
00100000
00000100
00100000
00000100
01000010
00000000
,
00000000
01000000
00000010
11000000
,
00000000
01000000
00000010
00110000
,
00000000
00000100
00100000
00000011
,
01000000
00000000
00000100
00100000
00000100
00100000
01000010
00000000
,
00000000
01000000
00000010
11000000
,
00000000
00000010
01000000
00000011
,
00000000
00000100
00100000
00010100
,
01000000
00000000
00000010
01000000
00000010
01000000
00010100
00000000
,
00000000
00000010
01000000
00110100
,
00000000
01000000
00000010
00110100
,
00000000
00000010
01000000
00000100
,
00100000
00000010
01000000
11000011
,
00000000
00000100
01000000
00010010
,
00100000
00000010
01000000
00010100
,
01000000
00000010
01000000
00010100
,
00100000
00000100
00100000
10000101
,
00000000
00000100
01000000
00000101
,
00000000
00100000
00000010
10100000
,
00000000
00000100
00100000
01000000
,
00000010
00000100
00100000
10000101
,
00000000
00000100
00000000
11000000
,
00000000
01000000
00000000
00000011
,
00000000
00000100
01000000
11000011
,
00000000
00000000
00000000
00000000
,
00000000
00000100
00000000
00100000
,
00000000
00000010
00000000
01000000
,
00000000
00000100
01000000
11000011
,
00000000
00000000
00000000
00000000
,
00000000
00000100
01000000
00000101
,
00000000
00100000
00000010
10100000
,
00000000
00000100
00000010
00000111
,
00000000
00100000
01000000
11100000
,
00000000
00000100
00000000
00100000
,
00000000
00000010
01000000
00000011
,
00000000
00100000
00000000
00100000
,
00000000
00000100
00000000
00000100
,
00000000
00000010
01000000
00010100
,
00000000
00100000
00000100
00001010
,
00000000
00000100
00100000
00000100
,
00100000
00000011
01000000
00000101
,
00000000
00100000
00000000
00000100
,
00000000
01000000
00000010
10100000
,
00000000
00000010
00000000
11000000
,
00000000
00000100
00100000
01001000
,
00000000
00000100
00000000
11000000
,
00000000
01000000
00000000
00000011
,
00000000
00000100
01000000
11000011
,
00000000
10100000
00000000
00000101
,
00000000
00000100
00000000
00100000
,
00000000
00000010
00000000
01000000
,
00000000
00000100
01000000
11000011
,
00000000
00000010
01000000
00000011
,
00000000
00100000
00000010
10100000
,
00000000
00000100
01000000
00000101
,
00000000
01000000
00000011
00000000
;
#NOTES:
     ds3ddx-single:
     Easy:
     Easy:
     3:
     :
00000000
00000000
00000000
00000000
,
00000000
00000000
00000000
00000000
,
00000000
00000010
01000000
00000011
,
00000000
00000010
01000000
00010100
,
00000000
00100000
00000100
11000000
,
00000010
00100000
00000100
00100000
,
00000000
01000000
00000010
11000000
,
00000000
01000000
00000010
00110000
,
00000000
00000100
00100000
00000010
,
01000000
00000100
00100000
00000010
,
00000000
01000000
00000010
11000000
,
00000000
00000010
01000000
00000011
,
00000000
00000100
00100000
00000100
,
01000000
00000010
00000010
01000000
,
00000000
00000010
00000000
00100100
,
00000000
01000000
00000000
00100100
,
00000000
00000010
01000000
00000100
,
00000000
01000000
00000000
01000010
,
00000000
00000100
00000000
00010010
,
00000000
00100000
00000000
00010100
,
00000000
00000010
00000000
00010100
,
00100000
00000100
00000000
10000101
,
00000000
00000100
01000000
00000100
,
00000000
00100000
00000010
00100000
,
00000000
00000100
00000000
01000000
,
00000000
00000010
00000000
00100000
,
00000000
00000100
00000000
11000000
,
00000000
01000000
00000000
00000011
,
00000000
00000100
00000000
01000010
,
00000000
00000000
00000000
00000000
,
00000000
00000100
00000000
00100000
,
00000000
00000010
00000000
01000000
,
00000000
00000100
00000000
01000010
,
00000000
00000000
00000000
00000000
,
00000000
00000100
00000000
00000101
,
00000000
00100000
00000000
10100000
,
00000000
00000100
00000000
00000010
,
00000000
00100000
00000000
01000000
,
00000000
00000100
00000000
00100000
,
00000000
00000010
00000000
11000000
,
00000000
00100000
00000000
00100000
,
00000000
00000100
00000000
00000100
,
00000000
00000010
00000000
01000000
,
00000000
00100000
00000000
00000010
,
00000000
00000100
00100000
00000100
,
00000000
00000011
00000000
10100000
,
00000000
00100000
00000000
00000100
,
00000000
01000000
00000000
00000011
,
00000000
00000010
00000000
11000000
,
00000000
00100000
00000000
00000010
,
00000000
00000100
00000000
11000000
,
00000000
01000000
00000000
00000011
,
00000000
00100000
00000000
01000010
,
00000000
00100000
00000000
01000100
,
00000000
00000100
00000000
00100000
,
00000000
00000010
00000000
01000000
,
00000000
00000100
01000000
01000010
,
00000000
00000010
00000000
01000010
,
00000000
00100000
00000000
00000011
,
00000000
00000100
00000000
11000000
,
00000000
01000000
00000011
00000000
;
#NOTES:
     ds3ddx-double:
     Club:
     Easy:
     5:
     :
0000000000000000
0000000000000000
0000000000000000
0000000000000000
,
0000000000000000
0000000000000000
0000000000000000
0000000000000000
,
0000000000000000
0000001000000000
0100000000000000
0000001100000000
,
0000000000000000
0000001000000000
0000010000000000
0000000000100000
,
0000000000000000
0000010000000000
0000000000100000
0000001000000000
,
0000000001000000
0000000000000000
0000010000000000
0000000000100000
0000001000000000
0000000001000000
0000001000000000
0000000000000000
,
0000000000000000
0000000000100000
0000000000000100
0000000000100000
,
0000000000000000
0000000000000100
0000000000100000
0000000000000010
,
0000000000000000
0000000001000000
0000000000100000
0000010000000000
,
0000001000000000
0000000000000000
0000000000100000
0000010000000000
0000000001000000
0000001000000000
0000000001000000
0000000000000000
,
0000000000000000
0100000000000000
0000001000000000
1100000000000000
,
0000000000000000
0000001000000000
0100000000000000
0000001100000000
,
0000000000000000
0000010000000000
0010000000000000
0001010000000000
,
0100000000000000
0100000000000000
0000001000000000
0001010000000000
,
0000000000000000
0000001000000000
0000010000000000
0000010000100000
,
0000000000000000
0000000001000000
0000001000000000
0000001001000000
,
0000000000000000
0000010000000000
0000001000000000
0100000000000000
,
0000010000000000
0000001000000000
0100000000000000
1100001100000000
,
0000000000000000
0000010000000000
0000000000000000
0001001000000000
,
0000000000000000
0010000000000000
0000000000000000
0100100000000000
,
0000000000000000
0000001000000000
0100000000000000
0001010000000000
,
0010000000000000
0000010000000000
0000000000000000
1000010100000000
,
0000000000000000
0000010000000000
0000000000100000
0000010000100000
,
0000000000000000
0000000000000100
0000000000000010
0000000001000000
,
0000000000000000
0000000000000100
0000000000100000
0000000001000000
,
0000000000000010
0000000000000100
0000000000100000
0000000010000101
,
0000000000000000
0000000000100000
0000000000000000
0000001000000000
,
0000000000000000
0000010000000000
0000000000000000
0000000001000000
,
0000000000000000
0000000000100000
0000010000000000
0000001001000000
,
0000000000000000
0000000000000000
0000000000000000
0000000000000000
,
0000000000000000
0000010000000000
0000000000000000
0000000001000000
,
0000000000000000
0000000000100000
0000000000000000
0000001000000000
,
0000000000000000
0000000000100000
0000010000000000
0000010001000000
,
0000000000000000
0000000000000000
0000000000000000
0000000000000000
,
0000000000000000
0000010000000000
0100000000000000
0000010100000000
,
0000000000000000
0010000000000000
0000001000000000
1010000000000000
,
0000000000000000
0000010000000000
0000001000000000
0000011100000000
,
0000000000000000
0010000000000000
0100000000000000
1110000000000000
,
0000000000000000
0000010000000000
0000000000000000
0010000000000000
,
0000000000000000
0000001000000000
0100000000000000
0000001100000000
,
0000000000000000
0010000000000000
0000000000000000
0000001000000000
,
0000000000000000
0000000000100000
0000000000000000
0000000001000000
,
0000000000000000
0000000000000010
0000000001000000
0000000000010100
,
0000000000000000
0000000000100000
0000000000000100
0000000000001010
,
0000000000000000
0000000000100000
0000000000000100
0000000001000000
,
0000000000000000
0000000000100000
0000000000000000
0000010000000000
,
0000000000000000
0000001000000000
0000000000000000
0000010000000000
,
0000000000000000
0100000000000000
0000001000000000
1010000000000000
,
0000000000000000
0000001000000000
0000000000000000
1100000000000000
,
0000000000000000
0000010000000000
0010000000000000
0100100000000000
,
0000000000000000
0000010000000000
0000000000000000
0000001000000000
,
0000000000000000
0000000000100000
0000000000000000
0000000001000000
,
0000000000000000
0000000000100000
0000001000000000
0000001000100000
,
0000000000000000
0000000000000100
0000000000000000
0000000000100000
,
0000000000000000
0000000000000100
0000000000000000
0000000000100000
,
0000000000000000
0000000000000010
0000000000000000
0000000001000000
,
0000000000000000
0000010000000000
0000000001000000
0000010001000000
,
0000000000000000
0000000001000000
0000001000000000
0000000000100000
,
0000000000000000
0000010000000000
0000000000100000
0000010000000000
,
0000000000000000
0000000000100000
0000010000000000
0000000001000000
,
0000010000000000
0000000000000000
0000000001001000
0000000000000000
;
