#TITLE:VISION;
#SUBTITLE:;
#ARTIST:潘玮柏;
#TITLETRANSLIT:;
#SUBTITLETRANSLIT:;
#ARTISTTRANSLIT:Will Pan;
#GENRE:;
#CREDIT:locuuraa;
#LYRICSPATH:;
#MUSIC:VISION.ogg;
#OFFSET:-0.100;
#SAMPLESTART:12.000;
#SAMPLELENGTH:12.000;
#SELECTABLE:YES;
#BPMS:0.000=119.000;
#STOPS:;
#KEYSOUNDS:;
#BANNER:VISION.png;
#BACKGROUND:VISION.png;
#CDTITLE:../CDTitles/4DSS.png;
#BGCHANGES:-14.700=VISION.avi=1.000=0=0=1,
229.000=VISION.png=1.000=0=0=1,
99999=-nosongbg-=1.000=0=0=0
;
#NOTES:
     ds3ddx-double:
     Club:
     Easy:
     5:
     :
0000000000000000
0000000000000000
0000000000000000
0000000000000000
,
0000000000000000
0000000000000000
0000000000000000
0000000000000000
,
0000000000000000
0000000000000000
0000000000000000
0000000000000000
,
0000000000000000
0000000000000000
0000000000000000
0000000000000000
,
0000010000000000
0000001000000000
0000000000100000
0000000001000000
,
0000000000000010
0000000000000010
0000000001000000
0000000000100000
,
0000010000000000
0000001000000000
0000000000100000
0000000001000000
,
0000001000000000
0000000001000000
0000010000000000
0000000000110000
,
0000010000000000
0000001000000000
0100000000000000
0000010000000000
,
1000000000000000
0000000100000000
0001000000000000
0001000000000000
,
1000000000000000
1000000000000000
0000000100000000
0000000100000000
1000000000000000
1000000000000000
0000000100000000
0000000000000000
,
0010010000000000
0000000000000000
0000000000000000
0010000000000000
,
0010000000000000
0100000000000000
0000010000000000
0000011000000000
,
0000010000000000
0000000000000000
0000001000000000
0000000000000000
0000000000100000
0000000001000000
0000000000100000
0000000000000000
,
0000000000000100
0000000000000010
0000000000000100
0000000000000010
,
0000000000100000
0000000000000000
0000000001100000
0000010000000000
0000001000000000
0000010000000000
0000000000000000
0000000000000000
,
0010000000000000
0000000000000000
0001000000000000
0000000000000000
0010000000000000
0010000000000000
0110000000000000
0000000000000000
,
0000010000000000
0000000000000000
0001000000000000
0000000000000000
0000010000000000
0000010000000000
0000011000000000
0000000000000000
,
0000001000000000
0000000000000000
0010000000000000
0000000000000000
0000010000000000
0000001000000000
0000000001000000
0000000000000000
,
0000000000010000
0000000000000100
0000000000000110
0000000000100100
,
0000000000100000
0000000010000000
0000000000000010
0000000001000000
,
0000000000100000
0000010000000000
0000001000000000
1000000000000000
,
0010000000000000
0000000000000000
0000001000000000
0000000000000000
0000010000000000
0000001000000000
0100000000000000
0000000000000000
,
0010010000000000
0000011000000000
0000000001100000
0000000000100100
,
0000000000000010
0000000000010000
0000000000100000
0000000001100000
,
0000000000000010
0000000000010000
0000000000000100
0000000000000110
,
0000010000000000
0000001000000000
0000000000100000
0000000001000000
,
0000000000000100
0000000001000000
0000000000000010
0000000001000000
0000000000000100
0000000001000000
0000000000000100
0000000001000000
,
0000000000000010
0000000001000000
0000000001000000
0000000000100000
,
0001000000000000
0000010000000000
0000010000000000
0100000000000000
,
0000010000000000
0001001000000000
0010000000000000
0101000000000000
,
0000010000000000
0000001000000000
0000000000100000
0000000001000000
,
0000010000000000
0000000000010000
0000000000100000
0001000000000000
,
0000000000100000
0000000000000000
0000000001000000
0000000000000000
0000010000000000
0000000001000000
0000010000000000
0000000000000000
,
0000001000000000
0100000000000000
0000001000000000
0100000000000000
,
0010010000000000
0001000000000000
0010010000000000
0001000000000000
0010010000000000
0001000000000000
0010010000000000
0001000000000000
,
0010010000000000
0000010000000000
0000010000000000
0100000000000000
,
0000001000000000
0000001000000000
0000000000100000
0000000000000100
,
0000000000000010
0000000000000000
0000000001000000
0000000001000000
0000000000000100
0000000000000000
0000000000010000
0000000000000000
,
0000000001000000
0000000000000000
0000000000100000
0000000000100000
0000010000000000
0000000000000000
1000000000000000
0000000000000000
,
0010000000000000
0100000000000000
0000001000000000
0000010000000000
,
0001000000000000
0000000100000000
0000000000000000
0001000000000000
1000000000000000
0000000000000000
0001000000000000
0000000100000000
0000000000000000
0001000000000000
1000000000000000
0000000000000000
,
0000010000000000
0000001000000000
0000000000100000
0000000001000000
,
0000000000010000
0000000000000001
0000000000000000
0000000000000000
0000000000000000
0000000000000000
0000000000000000
0000000000000000
0000000000000000
0000000000000000
0000000000000000
0000000000000000
,
0000000000100000
0000000001000000
0000000000000010
0000000000000100
0000000000100000
0000000001000000
0000000000000010
0000000000000100
,
0000000010000000
0000000000000001
0000000000000000
0000000000000000
0000000000000000
0000000000000000
0000000000000000
0000000000000000
0000000000000000
0000000000000000
0000000000000000
0000000000000000
0000000000000000
0000000000000000
0000000000000000
0000000000000000
0000000000000000
0000000000000000
0000000000000000
0000000000000000
0000000000000000
0000000000000000
0000000000000000
0000000000000000
;
#NOTES:
     ds3ddx-single:
     Hard:
     Medium:
     5:
     :
00000000
00000000
00000000
00000000
,
00000000
00000000
00000000
00000000
,
00000000
00000000
00000000
00000000
,
00000000
00000000
00000000
00000000
,
10000000
10000000
10000000
10000000
00000001
00000001
00000001
00000000
,
00000000
00000000
00000000
00000000
,
00000001
00000001
00000001
00000001
10000000
10000000
10000000
00000000
,
00000000
00000000
00000000
00000000
,
10000000
00000001
00000000
00000001
00000001
00000001
00000001
00000000
,
00000000
00000000
00000000
00000000
,
10000000
10000000
00000001
00000001
10000000
10000000
00000001
00000000
,
00100100
00000000
00000000
00100000
,
00100000
01000000
00000100
00000110
,
00000100
00000000
00000010
00000000
00100000
00100000
01100000
00000000
,
00100000
01000000
00000100
00000110
,
00000100
00000000
00000010
00000000
00100000
00100000
01100000
00000000
,
00100000
00000000
00010000
00000000
00100000
00100000
01100000
00000000
,
00000100
00000000
00010000
00000000
00000100
00000100
00000110
00000000
,
00000010
00000000
00100000
00000000
00000100
00000010
01000000
00000000
,
00010000
00000100
00000110
00100100
,
00100000
10000000
00000010
00000001
,
00000100
00010000
01000000
10000000
,
00100000
00000000
00000010
00000000
00000100
00000010
01000000
00000000
,
00100100
00000110
00100100
00100100
,
01000000
00010000
00100000
01100000
,
00000010
00010000
00000100
00000110
,
00010000
10000000
00000000
00010000
00000001
00000000
00010000
10000000
00000000
00010000
00000001
00000000
,
00000100
00000010
01000000
00000100
00000010
01000000
00000100
00000010
,
01000000
00000100
00000100
00000010
,
00000000
00100000
00100000
01000000
,
00000100
00010010
00100000
01010000
,
00000100
00000001
00000001
00000001
,
00100000
00000001
00000100
10000000
,
00010000
00000000
00000001
00000000
00000000
00000000
00010000
00000000
10000000
00000000
00000000
00000000
00100000
00000000
00000000
01000000
00000000
00000000
00000010
00000000
00000000
00000000
00000000
00000000
,
00100000
01000000
00000010
01000000
,
00100100
00010000
00100100
00010000
00100100
00010000
00100100
00010000
,
00100100
00000100
00000100
01000000
,
00000000
00100000
00100000
00000010
,
00000100
00000000
00000100
00000100
00100000
00000000
10000000
00000000
,
00100000
00000000
00100000
00100000
00000100
00000001
00000000
00000000
,
00100000
01000000
00000010
00000100
,
00010000
00000001
00000000
00010000
10000000
00000000
00010000
00000001
00000000
00010000
10000000
00000000
,
00000100
00010000
01000000
00000100
,
00010000
10000000
00000000
00000000
00000000
00000000
00000000
00000000
00000000
00000000
00000000
00000000
,
00100000
01000000
00000010
00000100
00100000
01000000
00000010
00000100
,
10000001
00000000
00000000
00000000
;
