#TITLE:UPSIDE DOWN;
#SUBTITLE:;
#ARTIST:a-teens;
#TITLETRANSLIT:;
#SUBTITLETRANSLIT:;
#ARTISTTRANSLIT:;
#GENRE:;
#CREDIT:locuuraa;
#LYRICSPATH:;
#MUSIC:UPSIDE DOWN.ogg;
#OFFSET:-0.060;
#SAMPLESTART:12.020;
#SAMPLELENGTH:12.000;
#SELECTABLE:YES;
#BPMS:0.000=122.000;
#STOPS:;
#KEYSOUNDS:;
#BANNER:UPSIDE DOWN.png;
#BACKGROUND:UPSIDE DOWN.png;
#CDTITLE:../CDTitles/4DSS.png;
#BGCHANGES:-14.700=UPSIDE DOWN.avi=1.000=0=0=1,
229.000=UPSIDE DOWN.png=1.000=0=0=1,
99999=-nosongbg-=1.000=0=0=0
;
#NOTES:
     ds3ddx-double:
     Club:
     Easy:
     3:
     :
0000000000000000
0000000000000000
0000000000000000
0000000000000000
,
0000000000000000
0000000000000000
0000000000000000
0000000000000000
,
0000000000000000
0000000000000000
0000000000000000
0000000000000000
,
0010000000000000
0000000000000000
0000010000000000
0000000000000000
,
0100000000000000
0000000000000000
0000001000000000
0000000000000000
,
1010000000000000
0001010000000000
0000001100000000
0100000000000000
,
0100010000000000
0010001000000000
1010010100000000
0000000000000000
,
0000001000000000
0000000000000000
0000010000000000
0000000000000000
,
0000000000100000
0000000001000000
0000000000000010
0000000000000000
,
0000000001000000
0000000000000000
0000010000000000
0000000000000000
,
0010000000000000
0000010000000000
0100000000000000
0000000000000000
,
0000001100000000
0000001100000000
0000010000000000
0000010000000000
,
0000000001000000
0000001000000000
0000000000100000
0000000000000000
,
0000000011000000
0000000011000000
0000000000000101
0000000000000101
,
0000000000010000
0000000100000000
0000100000000000
1000000000000000
,
0000000000000000
0010000000000000
0100000000000000
0000001000000000
,
1100000000000000
0000001000000000
0000010000000000
0000000000100000
,
0000000001000000
0000000000000010
0000000011000000
0000000000010100
,
0000000000110100
0000000000000000
0000001001000000
0000000000000000
,
0010000000000000
0000001000000000
0010000000000000
0000000000000000
0010000000000000
0000000000000000
0000010100000000
0000000000000000
,
0000010000000000
0000001000000000
0000000000100000
0000000000000000
0000000000000011
0000000000000000
0000000011000000
0000000000000000
,
0000000000000100
0000000001000000
0000010000000000
0100000000000000
,
0010000000000000
0100000000000000
0000001000000000
0000000000000000
1100000000000000
0000000000000000
0000001100000000
0000000000000000
,
0010000000000000
0000010000000000
0000001000000000
0000000000100000
,
0000000001000000
0000000001000010
0000000000110100
0000000000000000
,
0001010000000000
0000000000100000
0000101000000000
0000000000100000
,
0000000001000000
0000000000000000
0000000000000000
0000000000000000
0000010000000000
0000000000000000
0000000000000000
0000000000000000
0000010001000000
0000000000000000
0000000000000000
0000000000000000
0000000000100000
0001010000000000
0000000000000000
0000000000000000
,
0000000000000000
0000000000000000
0001000000000000
0000000000000000
,
1000000000000000
0000000000000000
0000000100000000
0000000000000000
,
0000000010000000
0000000000000000
0001000000000000
0000000000000000
,
0000000000001000
0000000000000000
0000000000010000
0000000000000000
,
0000010000000000
0000000000000000
0000000001000000
0000000000000000
,
0000010000000000
0000000000100000
0000000001000000
0000010000000000
,
0000001000000000
0010000000000000
0000010000000000
0000001000000000
,
0000000000100000
0000000010000000
0000000000000010
0000000010000000
,
0000000000100000
0000010000000000
0000001000000000
0100000000000000
,
0000010000000000
0010000000000000
0000001000000000
0100000000000000
,
0000001000000000
0100000000000000
0000010000000000
0010000000000000
,
1000000100000000
0000000000000000
0000000000000000
0000000000000000
,
0000000000000000
0000000000000000
0000000000000000
0000000000000000
,
0000000000110000
0000000000000000
0000000000000100
0000000000000000
,
0000000001000000
0000000000000000
0000010000000000
0000000000000000
,
0000000000100100
0000000001000000
0000001000000000
0000010000000000
,
0010000000000000
0000010000000000
0010000000000000
0100000000000000
0000001000000000
0000000000000000
0000000000000000
0000000000000000
,
0110000000000000
0000011000000000
0000000001100000
0000000000000110
,
0000000001000000
0000000000000100
0000000001000000
0000010000000000
,
0000011000000000
0000000000100000
0000000001000000
0000010000000000
,
0000001000000000
0000001000000000
0000000000100000
0000001000000000
,
0000010000000000
0000010000100000
0000000001000000
0000001001000000
,
0001000000000000
0000000000001000
0000000000100000
0000000000100000
,
0000000000000100
0000000000000010
0000000001000000
0000000000100000
,
0000010000000000
0010000000000000
0000010000000000
0000000110000000
;
#NOTES:
     ds3ddx-single:
     Hard:
     Medium:
     3:
     :
00000000
00000000
00000000
00000000
,
00000000
00000000
00000000
00000000
,
00000000
00000000
00000000
00000000
,
00100000
00000000
00000100
00000000
,
01000000
00000000
00000010
00000000
,
10100000
00010100
00000011
01001000
,
01000100
00100010
10100101
00000000
,
00000010
00000000
00100000
00000000
,
00000100
00100000
00000010
00000000
,
01000000
00000000
00000100
00000000
,
00100000
00000100
01000000
00000000
,
00000011
00000011
00110000
00110000
,
01000000
00000010
00100000
00000000
,
10100000
10100000
00000101
00000101
,
00010000
10000000
00001000
00000001
,
00000000
00100000
01000000
00000010
,
11000000
00110000
00000101
01010000
,
00110000
00000101
11000000
00000011
,
00110100
00000000
11000011
00000000
,
00100000
00000010
00100000
00000000
00110000
00000000
00010100
00000000
,
00000100
00000010
01000000
00000000
00000011
00000000
00000011
00000000
,
00000100
01000000
00000100
00000000
01010000
00000000
00010010
00000000
,
00100000
01000000
00000010
00000000
11000000
00000000
11000000
00000000
,
00100000
00010100
00000011
00000100
,
01000000
01000010
00110100
00000000
,
00110000
00000101
00001010
11000000
,
00000010
00000000
00000000
00000000
00100000
00000000
00000000
00000000
00000100
00000000
00000000
00000000
00010000
10000000
00000000
00000000
,
00000000
00000000
00010000
00000000
,
10000000
00000000
00010000
00000000
,
00000001
00000000
10000000
00000000
,
00000001
00000000
00010000
00000000
,
00100000
00000000
00000100
00000000
,
01000000
00000100
00000010
00000000
,
00100000
00100000
00000100
00000010
,
00010000
00000001
00001000
10000000
,
00100000
00000000
00000100
00000100
01000000
00000000
00000010
00000000
,
00000100
00000000
00100000
00100000
00000010
00000000
01000000
00000000
,
00000010
00000000
01000000
01000000
00000100
00000000
00100000
00000000
,
10000001
00000000
00000000
00000000
,
00000000
00000000
00000000
00000000
,
00110000
00000000
00000101
00000000
,
01010000
00000000
00000011
00000000
,
00100100
00100100
01000010
01000010
,
00100000
00000100
00100000
01000000
00000010
00000000
10000001
00000000
,
01100000
00100100
00000110
01000010
,
00100000
00000100
10000000
10000000
,
01000010
00000110
00100100
01100000
,
00000010
01000000
00000001
00000001
,
00100000
00100100
01000000
01000010
,
10000000
00000001
00010000
00010000
,
00100000
00000010
00000100
01000000
,
00100000
00100000
00000100
11000000
;
#NOTES:
     ds3ddx-single:
     Easy:
     Easy:
     3:
     :
00000000
00000000
00000000
00000000
,
00000000
00000000
00000000
00000000
,
00000000
00000000
00000000
00000000
,
00100000
00000000
00000100
00000000
,
01000000
00000000
00000010
00000000
,
00100000
00000000
00000010
00000000
,
00000101
10100000
10000001
00000000
,
00000010
00000000
00100000
00000000
,
00000100
00100000
00000010
00000000
,
01000000
00000000
00000100
00000000
,
00100000
00000100
01000000
00000000
,
00000001
00000001
00010000
00010000
,
01000000
00000010
00100000
00000000
,
00100000
00100000
00000100
00000100
,
00010000
10000000
00001000
00000001
,
00000000
00100000
01000000
00000010
,
01000000
00100000
00000100
01000000
,
00010000
00000100
01000000
00000010
,
00110000
00000000
00000011
00000000
,
00100000
00100000
00100000
00000100
,
00000100
01000000
00000010
00000010
,
00000100
00000100
01000000
00000010
,
00100000
00000010
01000000
01000000
,
00100000
00000100
00000010
00000100
,
01000000
00000010
00000100
00000000
,
00100000
00000100
00000010
01000000
,
00000010
00100000
00000100
00010000
,
00000000
00000000
00010000
00000000
,
10000000
00000000
00010000
00000000
,
00000001
00000000
10000000
00000000
,
00000001
00000000
00010000
00000000
,
00100000
00000000
00000100
00000000
,
01000000
00000100
00000010
00000000
,
00100000
00100000
00000100
00000010
,
00010000
00000001
00001000
10000000
,
00100000
00000100
01000000
00000010
,
00000100
00100000
00000010
01000000
,
00000010
01000000
00000100
00100000
,
10000001
00000000
00000000
00000000
,
00000000
00000000
00000000
00000000
,
00010000
00000000
00000001
00000000
,
00010000
00000000
00000001
00000000
,
00000100
00100000
00000010
01000000
,
00100000
00100000
00000010
10000001
,
00100000
00100000
00000010
00000010
,
00100000
00000100
10000000
10000000
,
00000010
00000010
00100000
00100000
,
00000010
01000000
00000001
00000001
,
00100000
00100000
01000000
01000000
,
10000000
00000001
00010000
00010000
,
00100000
00000010
00000100
01000000
,
00100000
00100000
00000100
11000000
;
