#TITLE:To My BoyFriend;
#SUBTITLE:;
#ARTIST:Fin.K.L.;
#TITLETRANSLIT:;
#SUBTITLETRANSLIT:;
#ARTISTTRANSLIT:;
#GENRE:;
#CREDIT:locuuraa;
#LYRICSPATH:;
#MUSIC:To My BoyFriend.ogg;
#OFFSET:-0.100;
#SAMPLESTART:12.020;
#SAMPLELENGTH:12.000;
#SELECTABLE:YES;
#BPMS:0.000=135.000,220.000=70.000;
#STOPS:;
#KEYSOUNDS:;
#BANNER:To My BoyFriend.png;
#BACKGROUND:To My BoyFriend.png;
#CDTITLE:../CDTitles/4DSS.png;
#BGCHANGES:-14.700=To My BoyFriend.avi=1.000=0=0=1,
229.000=To My BoyFriend.png=1.000=0=0=1,
99999=-nosongbg-=1.000=0=0=0
;
#NOTES:
     ds3ddx-double:
     Club:
     Easy:
     5:
     :
0000000000000000
0000000000000000
0000000000000000
0000000000000000
,
0000000000000000
0000000000000000
0000000000000000
0000000000000000
,
0000000000000000
0000000000000000
0000000000000000
0000000000000000
,
0000000000000000
0000000000000000
0000000000000000
0000000000000000
,
0000000000000000
0000010000000000
1010000000000000
0000001000000000
,
0000000010000000
0000010000000000
0000000000100000
0000000001000000
,
0000000000000010
0000000001000000
0000000001000000
0000000000000010
,
0000000000000000
0000000000100000
0000000001000000
0000000000010100
,
0000000000000010
0000000001000000
0000000001000000
0000000000100000
,
0000000000100000
0000010000000000
0001000000000000
0000010000000000
,
0000000010000000
0000000000000000
0000000000000000
0000000000000000
,
0000000000000000
0000000000000000
0100000000000000
0100000000000000
0100000000000000
0100000000000000
0100000000000000
0000000000000000
,
1000000100000000
0010000000000000
0001000000000000
0000010000000000
,
0001000000000000
0010000000000000
0000010000000000
0000000000000000
,
0100001000000000
0000000000000000
0100000000000000
0000001000000000
,
0000010000000000
0000000000000000
0000000001000000
0000000000000000
0000000000000000
0000000000110000
0000000000000000
0000000000000000
,
0000000000000000
0000010000000000
0000011000000000
0000000000100000
,
0000000001100000
0000010000000000
0000010000100000
0000001000000000
,
0000001001000000
0001000000000000
1000000000000000
0000001000000000
,
0100000000000000
0000000100000000
0000000000000000
0000000000000000
,
0000010000000000
0000000000000000
0000000000000000
0001000000000000
1000000000000000
0000000000000000
0000000000000000
0000000000000000
0000000000000000
0000010000000000
0000000000000000
0000000000000000
,
0000001000000000
0000000000100000
0000000001000000
0000000000000100
,
0000000000000001
0000000000100000
0000000010000000
0000000000010100
,
0000000001000000
0000010000000000
0000000000100000
0000001000000000
,
0001000000000000
0001000000000000
0000010000000000
0000001000000000
,
0000000000100000
0000000001100000
0000001000000000
0000000001000000
,
0000001000000000
0000000000100000
0001000000000000
0000000001000000
,
0000000000110000
0000000000000001
0000000000000010
0000000000100000
,
0000000000000100
0000000000000000
0000000000000000
0000000000010000
0000000010000000
0000000000000000
0000000000000000
0000000000000000
0000000000000000
0000000000000000
0000000000000000
0000000000000000
,
0000010000000000
0000001000000000
0000000000100000
0000000000100000
,
0000001000000000
0000001000000000
0000010000000000
0010000000000000
,
0000010000000000
0000010000000000
0100000000000000
0100000000000000
,
0000000000000000
0000010000000000
0001011000000000
0010000000000000
,
0111000000000000
0000010000000000
0001011000000000
0010000000000000
,
0111000000000000
0010000000000000
0100000000000000
0000001000000000
,
0000010000000000
1000000100000000
0000000000000000
0001000000000000
,
0000000100000000
0000010000100000
0000010000100000
0000001000000000
,
0000000000100000
0000000001000000
0000000000000010
0000000000010000
,
0000000000010000
0000000010000000
0000000100000000
0000000000100000
,
0000001000000000
0001000000000000
0000000010000000
0000010000000000
,
0000000001000000
0000001000000000
0000000000010000
0000010000000000
,
0000011000000000
0000000000100000
0000000001100000
0000010000000000
,
0000001000000000
0000000000100000
0000000001000000
0000001000000000
,
0000000001000000
0000001000000000
0000010000000000
0001000000000000
,
0001000000000000
0010010000000000
0100001000000000
0000001000000000
,
0100000000000000
0001000000000000
0000000100000000
0010000000000000
,
0000010000000000
1010000000000000
0000001000000000
0100000000000000
,
0000010000000000
0000001100000000
0000000000000000
0001010000000000
,
0010000000000000
0000000000000000
0000010000000000
0000001000000000
,
0000000000100000
0000000001000000
0000000001000000
0000000000000010
,
0000000011000000
0000000000000010
0000000010100000
0000000000000101
,
0000000000010000
0000000000010000
0000000010000000
0000000000000001
,
0000000010000001
0000000000000000
0000000000000100
0000000000000010
0000000000000100
0000000000000000
0000000000000000
0000000000000000
,
0000000000000000
0000000000000000
0000000000000000
0000000000000000
,
0000000000000000
0000000000000000
0000000000000000
0000000000000000
,
0000000000000000
0000000000000000
0000000000000000
0000000000000000
0000000000000000
0000000000000000
0000000000000000
0000000000000000
0001000000000000
1000000000000000
0000000000000000
0000000000000000
;
#NOTES:
     ds3ddx-single:
     Hard:
     Medium:
     4:
     :
00000000
00000000
00000000
00000000
,
00000000
00000000
00000000
00000000
,
00000000
00000000
00010000
00000001
00001000
10000000
00000000
00000000
,
00000000
00100000
00100000
00100000
,
10000001
00000000
00000000
00000000
00000000
00000000
00000100
00000000
00000000
00000000
00000000
00000000
00010000
00000000
10000000
00000000
00000000
00000000
00000000
00000000
00000000
00000001
00000000
00000000
,
00000000
00000000
00000000
00000000
00000000
00000000
00000000
00010000
,
00000001
00000000
00000000
00000000
,
00000000
00000100
00000100
00000100
,
00010000
00000000
00000000
00000000
00000000
00000000
00100000
00000000
00000000
00000000
00000000
00000000
00010000
00000000
00000001
00000000
00000000
00000000
00000000
00000000
00000000
10000000
00000000
00000000
,
00000000
00000000
00000000
00000000
00000000
00000000
00000000
00010000
,
10000000
00000000
00000000
00000000
,
00000000
00000000
01000000
01000000
01000000
01000000
01000000
00000000
,
10000001
00100000
00010000
00000100
,
00010000
00100000
00000100
00000000
,
01000010
00000000
01000000
00000010
,
00100000
00000000
00010000
00000000
00000000
00000001
00000000
00000000
,
00000000
00100000
01100000
00000100
,
00000110
00100000
00100100
01000000
,
01000010
10000000
10000000
00000010
,
01000000
00000001
00000000
00000000
,
00000100
00000000
00000000
00010000
10000000
00000000
00000000
00000000
00000000
00000100
00000000
00000000
,
00000010
01000000
00100000
00000100
,
00000001
00100000
10000000
00100000
,
01000000
00000010
00000100
00100000
,
10000000
10000000
00100000
01100000
,
00000100
00000110
01000000
00000100
,
00100000
00000100
00000010
01000000
,
00100000
10000001
00000010
00100000
,
00000100
00000000
00000000
00010000
10000000
00000000
00000000
00000000
00000000
00000000
00000000
00000000
,
00000100
00000100
00000010
00000010
,
01000000
01000000
00100000
00100000
,
00000100
00000100
01000000
01000000
,
00000000
00000100
00010110
00100000
,
01110000
00000100
00010110
00100000
,
01110000
00100000
01000000
00000010
,
00000100
10000001
00000000
00010000
,
00010000
00100100
00100100
01000000
,
00000010
00000000
00000000
00010000
00000001
00000000
00000000
00000000
00000000
00100000
00000000
00000000
,
00100000
00000100
01000000
00000010
,
00100000
01000000
00000010
00100000
,
00000100
00000000
00100000
01000000
,
00000100
00100000
00100000
00000100
,
00000010
01000000
00100000
00000100
,
00010000
10000000
00000000
00100100
00000000
00000000
00100100
00000000
00000000
00010000
00000000
00000000
,
00010000
00100100
00100100
00000010
,
01000000
00000000
00000000
00010000
10000000
00000000
00000000
00000000
00000000
00000100
00000000
00000000
,
00000100
00100000
00000010
01000000
,
00000100
00000010
00000000
00000100
,
00100000
00000000
00000100
00000010
,
00100000
00000100
00000100
00100000
,
01000000
00000010
00000100
00100000
,
00000100
10000000
00000010
00100000
,
10000001
00000000
00000010
00000010
00000010
00000000
00000000
00000000
,
00000000
00000000
00000000
00000000
,
00000000
00000000
00000000
00000000
,
00000000
00000000
00000000
00000000
00000000
00000000
00000000
00000000
00010000
00000001
00000000
00000000
;
