#TITLE:The Dirty Of Loudness;
#SUBTITLE:;
#ARTIST:清水達也;
#TITLETRANSLIT:;
#SUBTITLETRANSLIT:;
#ARTISTTRANSLIT:Tatsuya Shimizu;
#GENRE:;
#CREDIT:locuuraa;
#LYRICSPATH:;
#MUSIC:The Dirty Of Loudness.ogg;
#OFFSET:0.900;
#SAMPLESTART:11.820;
#SAMPLELENGTH:12.000;
#SELECTABLE:YES;
#BPMS:0.000=165.070;
#STOPS:;
#KEYSOUNDS:;
#BANNER:The Dirty Of Loudness.png;
#BACKGROUND:The Dirty Of Loudness.png;
#CDTITLE:../CDTitles/4DSS.png;
#BGCHANGES:-14.700=The Dirty Of Loudness.avi=1.000=0=0=1,
229.000=The Dirty Of Loudness.png=1.000=0=0=1,
99999=-nosongbg-=1.000=0=0=0
;
#NOTES:
     ds3ddx-single:
     Hard:
     Medium:
     8:
     :
00000000
00000000
00000000
00000000
00000000
00000000
00010100
11000000
,
00000000
00000000
00000000
00000000
,
00000000
00000000
00000000
00000000
00000000
00000000
00000000
00000000
00000000
00100000
01000000
00100000
,
01000000
00100000
01000000
00100000
01000000
00000100
00000010
00000100
00000010
00000100
00000010
00000100
,
00000010
01000000
00000010
01000000
00000010
00100000
00000100
00100000
00000100
00100000
00000010
01000000
,
00000100
00100000
00000010
01000000
00000100
00100000
00000100
01000000
00000010
01000000
00000010
01000000
,
00000100
00100000
00000010
01000000
00000100
00100000
00000010
01000000
00000100
00100000
00000010
00100000
,
00000010
00000100
01000000
00100000
00000100
01000000
00000010
00100000
01000000
00000100
00000010
00100000
,
00000010
01000000
00000100
01000000
00000010
00100000
00000100
01000000
00000010
00000100
01000000
00000100
,
00100000
00000100
01000000
00000010
00100000
00000100
01000000
00000010
00000100
00100000
00000100
00000010
,
00000100
00000010
00100000
01000000
00000100
00000010
00100000
01000000
00000100
00100000
00000100
01000000
,
00000010
01000000
00000010
00100000
01000000
00100000
01000000
00100000
01000000
00000100
00000010
00000100
,
00000010
00000100
00000010
01000000
00000010
01000000
00000010
00100000
00000100
00100000
00000100
01000000
,
00000010
00100000
00000100
00100000
00000010
00100000
00000010
00000100
01000000
00100000
00000100
00000010
,
00100000
01000000
00000100
00100000
00000010
01000000
00000100
00100000
00000010
00100000
00000100
01000000
,
00000010
00000000
00000000
00000000
01000000
00000000
00000000
00000000
00000100
00000000
00000000
00000000
00100000
00000000
00000000
00000000
00000010
00000000
00000000
00000000
01000000
00000000
00000000
00000000
00000100
00000000
00000000
00000000
00100000
00000000
00000000
00000000
00000010
00000000
00000000
00000000
01000000
00000000
00000000
00000010
00000000
00000000
01000000
00000000
00000000
00000010
00000000
00000000
,
01000000
00000010
00000000
00000000
00100000
00000100
00100000
00000100
00100000
00000100
00000000
00000000
01000000
00000010
01000000
00000010
,
01000000
00000010
00000000
00000000
00010000
00000000
00000001
00000000
00000000
00000000
00000000
00000000
00100000
01000000
00100000
01000000
,
00100000
01000000
00000000
00000000
00000100
00000010
00000100
00000010
00000100
00000010
00000000
00000000
00100000
00000010
00100000
00000010
,
00100000
00000000
00000000
00000010
00000000
00000000
00000000
00000000
00000000
00000000
00000000
00000000
00000000
00000000
00000000
00000000
00000000
00000000
00000000
00000000
00000000
00000000
00000000
00000000
00000000
00000000
00000000
00000000
00000000
00000000
00000000
00000000
00000000
00000000
00000000
00000000
01000000
00000000
00000000
00000000
00000010
00000000
00000000
00000000
00000100
00000000
00000000
00000000
,
00100000
00000010
00000100
01000000
00100000
00000100
01000000
00000010
00000100
00100000
01000000
00000010
,
01000000
00000100
00100000
00000100
00000010
00100000
00000100
00100000
00000010
01000000
00000010
00000100
,
00100000
00000010
01000000
00000100
00100000
00000010
00000100
01000000
00100000
00000100
00000010
01000000
,
00100000
00000100
00100000
00000100
00000100
00000100
00000100
00100000
00000010
01000000
00000010
00100000
,
00000100
01000000
00000100
00000010
00100000
01000000
00100000
01000000
00000100
00100000
00000010
01000000
,
00000100
00100000
00000010
00100000
00000100
01000000
00100000
00000100
00000010
01000000
00000100
00100000
,
01000000
00000100
00000010
00100000
00000010
00100000
00000010
00000100
01000000
00000010
01000000
00000100
,
00100000
01000000
00000010
00100000
00100000
00100000
00000100
00100000
00000000
00000010
01000000
00000010
,
00100000
00000010
00100000
00000010
00000100
01000000
00100000
00000100
01000000
00000010
01000000
00000010
,
00000100
00100000
01000000
00000100
00000010
00100000
00000100
00100000
01000000
00100000
00000100
00000010
,
00100000
01000000
00000010
00100000
00000100
01000000
00000010
00100000
00000100
01000000
00000010
00100000
,
01000000
00100000
01000000
00000100
00000010
00000100
00000010
00100000
00000010
01000000
00000010
00100000
,
00000100
01000000
00000010
00100000
00000100
00100000
00000010
01000000
00000100
00100000
00000010
01000000
,
00000100
01000000
00100000
00000010
00000100
00100000
00000010
01000000
00000010
00000100
00100000
00000010
,
01000000
00000100
00100000
00000100
00100000
01000000
00000010
01000000
00000010
00000100
00100000
01000000
,
00000010
00000000
00000000
00000000
00000100
00000000
00000000
00000000
00100000
00000000
00000000
00000000
00000100
00000000
00000000
00000000
00100000
00000000
00000000
00000000
01000000
00000000
00000000
00000000
00000010
00000000
00000000
00000000
01000000
00000000
00000000
00000000
00000010
00000000
00000000
00000000
00100000
00000000
00000000
01000000
00000000
00000000
00100000
00000000
00000000
01000000
00000000
00000000
,
00100000
01000000
00000000
00000000
00000100
00000010
00000100
00000010
00000100
00000010
00000000
00000000
00100000
01000000
00100000
01000000
,
00100000
01000000
00000000
00000000
00010001
00000000
00000000
00000000
00000000
00000000
00000000
00000000
00100000
00000100
00100000
00000100
,
00100000
00000100
00000000
00000000
01000000
00000010
01000000
00000010
01000000
00000010
00000000
00000000
00100000
00000100
00100000
00000100
,
00100000
00000100
00000000
00000000
00000000
00000000
00000000
00000000
00100000
00000000
01000000
00000000
00100000
00000000
01000000
00000000
,
00100000
00000000
00000000
01000000
00000000
00000000
00100000
00000000
00000000
01000000
00000000
00000000
00100000
00000000
00000000
01000000
00000000
00000000
00000100
00000000
00000010
00000000
00000100
00000000
,
00000010
00000100
00000010
00000100
00000010
00100000
00000010
01000000
00000010
01000000
00000100
00100000
,
00000010
01000000
00000100
00100000
00000010
00100000
00000010
00000100
01000000
00100000
00000100
01000000
,
00000010
01000000
00000100
00100000
00000010
00100000
00000010
00000100
00100000
00000100
01000000
00000010
,
00100000
00000010
01000000
00000010
01000000
00000010
00000100
00100000
00000010
01000000
00000000
00000100
,
01000000
00000100
00000010
00000100
00000010
01000000
00000100
01000000
00000010
00100000
00000010
00100000
,
00000100
01000000
00100000
00000010
00000100
01000000
00100000
00000010
00000100
00100000
01000000
00000010
,
00000100
01000000
00100000
00000100
01000000
00000010
01000000
00000100
00100000
00000100
00000010
00100000
,
00000100
00100000
00000010
00100000
00000010
01000000
00000100
00100000
01000000
00000100
00000010
00100000
,
00000100
01000000
00100000
00000100
00100000
00000100
01000000
00000010
00100000
00000100
01000000
00000010
,
00100000
00000100
00100000
00000010
00100000
00000100
01000000
00000010
00100000
00000100
01000000
00000100
,
00000010
00100000
00000100
01000000
00000100
00000010
00100000
00000100
01000000
00000100
00100000
00000010
,
01000000
00000100
00100000
00000100
00100000
01000000
00000100
00000010
01000000
00100000
00000010
00000100
,
00100000
00000100
01000000
00100000
00000010
00000100
00000010
00100000
00000100
01000000
00000100
00000010
,
00100000
01000000
00000010
00000100
01000000
00000100
00100000
00000010
01000000
00000010
00100000
00000100
,
00100000
00000010
00000100
00100000
01000000
00000100
00100000
00000011
00000000
00000000
00000000
00000000
,
00000000
00000000
00000000
10000001
,
00000000
00000000
00000000
00000000
00000000
00000000
00000000
00000000
00000000
00000000
00000000
00000000
00000010
00000000
00000000
01000000
00000010
00000000
01000000
00000000
00000010
00000000
01000000
00000000
,
00000010
00100000
00000100
00100000
00000100
00100000
00000100
01000000
00000010
01000000
00000010
00100000
,
00000100
01000000
00000010
00100000
00000100
00000000
00100000
00000000
00000000
00100000
00000000
00000000
,
00000101
00000000
00000000
00000000
00000000
10100000
00000000
00000000
00000000
00000000
00000000
00000000
,
00000000
00000000
01000000
00000010
01000000
00000010
01000000
00000010
00000000
00000000
00100000
00000100
00100000
00000100
00100000
00000100
,
00000000
01000000
00000000
00000011
00000000
01000000
00000000
00000000
,
00000010
00000000
00000000
00000010
00000000
00000000
01000000
00000000
00000000
00000011
00000000
00000000
00000000
00000000
00000000
01000000
00000000
00000000
00000100
00000000
00100000
00000000
00000010
00000000
,
01000000
00000100
00100000
00000010
01000000
00000100
00100000
00000010
01000000
00000010
00100000
00000100
,
01000000
00000010
00100000
00000010
11000000
00000000
00000000
00000000
00000000
00000000
00000000
00000000
,
00000000
00000000
00000000
00000000
,
00100100
00000000
00000000
00000000
00000000
00000000
00000000
00000000
00100100
00000000
00000000
00000000
00000000
00000000
00000000
00000000
00000000
00000000
01000100
00000000
00000000
00000000
00000000
00000000
00100010
00000000
00000000
00000000
00000000
00000000
01000100
00000000
00000000
00000000
00000000
00000000
00000000
00000000
00000000
00100010
00000000
00000000
00000000
00000000
00000000
00000101
00000000
00000000
,
00000000
00000000
00000000
10100000
00000000
00000000
00000000
00000000
00000000
00000000
10110111
00000000
00000000
00000000
00000000
00000000
;
#NOTES:
     ds3ddx-double:
     Club:
     Easy:
     8:
     :
0000000000000000
0000000000000000
0000000000000000
0000000000000000
0000000000000000
0000000000000000
0001010000000000
0000000000110000
,
0000000000000000
0000000000000000
0000000000000000
0000000000000000
,
0000000000000000
0000000000000000
0000000000000000
0000000000000000
0000000000000000
0000000000000000
0010000000000000
0000001000000000
,
0000010000000000
0000000000100000
0000000001000000
0000000000000010
0000000000000100
0000000000000010
0000000001000000
0000000000100000
,
0000010000000000
0000001000000000
0100000000000000
0010000000000000
0100000000000000
0000001000000000
0000010000000000
0000000000100000
,
0000000001000000
0000000000000010
0000000000000100
0000000000000010
0000000001000000
0000000000100000
0000000001000000
0000000001000000
,
0000000001000000
0000000000100000
0000010000000000
0000001000000000
0100000000000000
0010000000000000
0100000000000000
0000010000000000
,
0000001000000000
0000000001000000
0000000000100000
0000000001000000
0000001000000000
0000010000000000
0000001000000000
0000000000100000
,
0000000001000000
0000001000000000
0000010000000000
0000001000000000
0000000001000000
0000000000100000
0000000000000010
0000000001000000
,
0000000000000100
0000000001000000
0000000000100000
0000000000000010
0000000000000100
0000000001000000
0000000000000010
0000000000100000
,
0000000000000100
0000000000100000
0000000000000010
0000000001000000
0000000000100000
0000010000000000
0000001000000000
0100000000000000
,
0000001000000000
0010000000000000
0000010000000000
0100000000000000
0000010000000000
0010000000000000
0000010000000000
0100000000000000
,
0010000000000000
0000001000000000
0000010000000000
0010000000000000
0000001000000000
0100000000000000
0000010000000000
0010000000000000
,
0000001000000000
0000010000000000
0000000000100000
0000000001000000
0000000000000010
0000000000000100
0000000000000010
0000000001000000
,
0000000000000010
0000000001000000
0000000000000100
0000000001000000
0000000000000100
0000000001000000
0000000000000010
0000000001000000
,
0000000000100000
0000000000000000
0000000000000000
0000000000000000
0000000000000000
0000000000000000
0000010000000000
0000000000000000
0000000000000000
0000000000000000
0000000000000000
0000000000000000
0000000000100000
0000000000000000
0000000000000000
0000000000000000
0000000000000000
0000000000000000
0000001000000000
0000000000000000
0000000000000000
0000000000000000
0000000000000000
0000000000000000
0000000001000000
0000000000000000
0000000000000000
0000000000000000
0000000000000000
0000000000000000
0000000000000000
0000000000000000
0000010000000000
0000000000000000
0000000000000000
0000000000000000
0000001000000000
0000000000000000
0000000000000000
0000010000000000
0000000000000000
0000000000000000
0000001000000000
0000000000000000
0000000000000000
0000010000000000
0000000000000000
0000000000000000
,
0000001000000000
0000000000000000
0000000000000000
0000000000000000
0000000000100000
0000000001000000
0000000000100000
0000000001000000
0000000000100000
0000000001000000
0000000000000000
0000000000000000
0000010000000000
0000000000100000
0000010000000000
0000000000100000
,
0000010000000000
0000000000100000
0000000000000000
0000000000000000
0000000000010000
0000000000000000
0001000000000000
0000000000000000
0000000000000000
0000000000000000
0000000000000000
0000000000000000
0000010000000000
0000000000100000
0000010000000000
0000000000100000
,
0000010000000000
0000000000100000
0000000000000000
0000000000000000
0000010000000000
0000000001000000
0000010000000000
0000000001000000
0000010000000000
0000000001000000
0000000000000000
0000000000000000
0000000000100000
0000001000000000
0000000000100000
0000001000000000
,
0000000000100000
0000000000000000
0000000000000000
0000001000000000
0000000000000000
0000000000000000
0000000000000000
0000000000000000
0000000000000000
0000000000000000
0000000000000000
0000000000000000
0000000000000000
0000000000000000
0000000000000000
0000000000000000
0000000000000000
0000000000000000
0000000000000000
0000000000000000
0000000000000000
0000000000000000
0000000000000000
0000000000000000
0000000000000000
0000000000000000
0000000000000000
0000000000000000
0000000000000000
0000000000000000
0000000000000000
0000000000000000
0000000000000000
0000000000000000
0000000000000000
0000000000000000
0100000000000000
0000000000000000
0000000000000000
0000000000000000
0000001000000000
0000000000000000
0000000000000000
0000000000000000
0000010000000000
0000000000000000
0000000000000000
0000000000000000
,
0010000000000000
0000001000000000
0000010000000000
0100000000000000
0010000000000000
0000010000000000
0100000000000000
0000001000000000
0000010000000000
0010000000000000
0100000000000000
0000001000000000
,
0100000000000000
0000010000000000
0010000000000000
0000001000000000
0000000000000000
0000010000000000
0000000000100000
0000000001000000
0000000000000010
0000000001000000
0000000000000010
0000000000000100
,
0000000000100000
0000000000000010
0000000001000000
0000000000000100
0000000000100000
0000000000000010
0000000001000000
0000000000100000
0000010000000000
0000001000000000
0100000000000000
0000010000000000
,
0010000000000000
0000010000000000
0010000000000000
0000010000000000
0000010000000000
0000010000000000
0000010000000000
0010000000000000
0000001000000000
0100000000000000
0000001000000000
0000010000000000
,
0000000000100000
0000000001000000
0000000000000010
0000000001000000
0000000000100000
0000010000000000
0000001000000000
0100000000000000
0000010000000000
0010000000000000
0000001000000000
0100000000000000
,
0000010000000000
0010000000000000
0000001000000000
0010000000000000
0000010000000000
0100000000000000
0010000000000000
0000010000000000
0000001000000000
0100000000000000
0000010000000000
0010000000000000
,
0100000000000000
0000010000000000
0000001000000000
0010000000000000
0000001000000000
0000010000000000
0000000000100000
0000000001000000
0000000000000010
0000000000000100
0000000000000010
0000000001000000
,
0000000000000010
0000000000100000
0000000000000100
0000000000100000
0000000000100000
0000000000100000
0000000000000100
0000000000100000
0000000000000000
0000000000000010
0000000001000000
0000000000100000
,
0000010000000000
0000000001000000
0000010000000000
0000000001000000
0000010000000000
0000000001000000
0000010000000000
0000000000100000
0000001000000000
0000000000100000
0000010000000000
0000000001000000
,
0000001000000000
0000000001000000
0000001000000000
0000000001000000
0000001000000000
0010000000000000
0000010000000000
0010000000000000
0000001000000000
0100000000000000
0000001000000000
0000010000000000
,
0000000000100000
0000000001000000
0000000000000010
0000000000100000
0000000000000100
0000000001000000
0000000000000010
0000000000100000
0000000000000100
0000000000000010
0000000001000000
0000000000100000
,
0000000000000100
0000000001000000
0000000000000010
0000000000000100
0000000000100000
0000000001000000
0000000000000100
0000000000000010
0000000001000000
0000000000000100
0000000000100000
0000000000000100
,
0000000001000000
0000000000100000
0000000000000010
0000000000000100
0000000001000000
0000000000000010
0000000001000000
0000000000000100
0000000000100000
0000000000000010
0000000001000000
0000000000000100
,
0000000000100000
0000000000000010
0000000001000000
0000000000000000
0000000000100000
0000010000000000
0000001000000000
0100000000000000
0000001000000000
0000010000000000
0010000000000000
0000001000000000
,
0100000000000000
0000010000000000
0010000000000000
0000010000000000
0010000000000000
0100000000000000
0000001000000000
0100000000000000
0000001000000000
0000010000000000
0010000000000000
0100000000000000
,
0000001000000000
0000000000000000
0000000000000000
0000000000000000
0000010000000000
0000000000000000
0000000000000000
0000000000000000
0010000000000000
0000000000000000
0000000000000000
0000000000000000
0000010000000000
0000000000000000
0000000000000000
0000000000000000
0010000000000000
0000000000000000
0000000000000000
0000000000000000
0100000000000000
0000000000000000
0000000000000000
0000000000000000
0000001000000000
0000000000000000
0000000000000000
0000000000000000
0100000000000000
0000000000000000
0000000000000000
0000000000000000
0000001000000000
0000000000000000
0000000000000000
0000000000000000
0010000000000000
0000000000000000
0000000000000000
0100000000000000
0000000000000000
0000000000000000
0010000000000000
0000000000000000
0000000000000000
0100000000000000
0000000000000000
0000000000000000
,
0010000000000000
0100000000000000
0000000000000000
0000000000000000
0000010000000000
0000001000000000
0000010000000000
0000001000000000
0000010000000000
0000001000000000
0000000000000000
0000000000000000
0000000000100000
0000000001000000
0000000000100000
0000000001000000
,
0000000000100000
0000000001000000
0000000000000000
0000000000000000
0000000000010000
0000000000000000
0000000000000000
0000000000000000
0000000000000000
0000000000000000
0000000000000000
0000000000000000
0000000000000100
0000000000000010
0000000000000100
0000000000000010
,
0000000000000100
0000000000000010
0000000000000000
0000000000000000
0000000000100000
0000000001000000
0000000000100000
0000000001000000
0000000000100000
0000000001000000
0000000000000000
0000000000000000
0000010000000000
0000001000000000
0000010000000000
0000001000000000
,
0000010000000000
0000000000000000
0000000000000000
0000000000000000
0010000000000000
0100000000000000
0010000000000000
0100000000000000
,
0010000000000000
0000000000000000
0000000000000000
0100000000000000
0000000000000000
0000000000000000
0010000000000000
0000000000000000
0000000000000000
0100000000000000
0000000000000000
0000000000000000
0010000000000000
0000000000000000
0000000000000000
0100000000000000
0000000000000000
0000000000000000
0000010000000000
0000000000000000
0000001000000000
0000000000000000
0000010000000000
0000000000000000
,
0000001000000000
0000010000000000
0000001000000000
0000010000000000
0000001000000000
0010000000000000
0000001000000000
0000010000000000
0000000000100000
0000000001000000
0000000000000010
0000000000000100
,
0000000000000010
0000000001000000
0000000000100000
0000000001000000
0000000000000010
0000000000000100
0000000000000010
0000000001000000
0000000000000010
0000000000000100
0000000000000010
0000000000100000
,
0000000001000000
0000010000000000
0000001000000000
0010000000000000
0100000000000000
0000001000000000
0100000000000000
0000001000000000
0000010000000000
0000000000100000
0000000001000000
0000000000000010
,
0000000000000100
0000000001000000
0000000000000010
0000000001000000
0000000000000100
0000000001000000
0000000000100000
0000001000000000
0000010000000000
0000000001000000
0000001000000000
0000000001000000
,
0000001000000000
0000000001000000
0000010000000000
0000000001000000
0000010000000000
0000000001000000
0000000000100000
0000001000000000
0000000000100000
0000001000000000
0000010000000000
0010000000000000
,
0000001000000000
0100000000000000
0000001000000000
0000010000000000
0000000000100000
0000000001000000
0000000000000010
0000000001000000
0000000000000100
0000000000100000
0000000000000010
0000000000000100
,
0000000001000000
0000000000000100
0000000001000000
0000000000100000
0000000001000000
0000010000000000
0000001000000000
0000000001000000
0000010000000000
0000000000100000
0000001000000000
0000000000100000
,
0000010000000000
0000000000100000
0000010000000000
0000000000100000
0000010000000000
0000001000000000
0100000000000000
0000010000000000
0010000000000000
0000001000000000
0100000000000000
0000010000000000
,
0100000000000000
0000010000000000
0010000000000000
0000001000000000
0000010000000000
0100000000000000
0000010000000000
0010000000000000
0000001000000000
0010000000000000
0000010000000000
0100000000000000
,
0000001000000000
0000010000000000
0000000001000000
0000000000100000
0000000000000010
0000000000000100
0000000001000000
0000000000000010
0000000000100000
0000000000000100
0000000001000000
0000000000100000
,
0000010000000000
0000001000000000
0100000000000000
0000010000000000
0010000000000000
0000001000000000
0010000000000000
0000010000000000
0100000000000000
0000010000000000
0010000000000000
0000001000000000
,
0000010000000000
0000000000100000
0000000001000000
0000010000000000
0000001000000000
0000000000100000
0000010000000000
0000000000100000
0000010000000000
0000000001000000
0000000000100000
0000000000000100
,
0000000001000000
0000000000000010
0000000000000100
0000000000100000
0000000000000010
0000000000000100
0000000000100000
0000000001000000
0000010000000000
0100000000000000
0000010000000000
0000001000000000
,
0010000000000000
0100000000000000
0000001000000000
0000010000000000
0100000000000000
0000001000000000
0000010000000000
0000000000100000
0000000001000000
0000000000000010
0000000001000000
0000000000000100
,
0000000000100000
0000000000000010
0000000001000000
0000000000000100
0000000000100000
0000000000000100
0000000000100000
0000000000000011
0000000000000000
0000000000000000
0000000000000000
0000000000000000
,
0000000000000000
0000000000000000
0000000000000000
0000000000000000
,
0000000000000000
0000000000000000
0000000000000000
0000000000000000
0000000000000000
0000000000000000
0000000000000100
0000000000100000
0000000001000000
0000001000000000
0000010000000000
0000001000000000
,
0000000001000000
0000000000100000
0000000001000000
0000001000000000
0000010000000000
0000001000000000
0000000000100000
0000000001000000
0000000000000010
0000000001000000
0000000000000100
0000000000000010
,
0000000001000000
0000000000100000
0000010000000000
0000001000000000
0000000000000000
0000000000000000
0010000000000000
0000000000000000
0000000000000000
0010000000000000
0000000000000000
0000000000000000
,
0000010100000000
0000000000000000
0000000000000000
0000000000000000
0000000000000000
1010000000000000
0000000000000000
0000000000000000
0000000000000000
0000000000000000
0000000000000000
0000000000000000
,
0000000000000000
0000000000000000
0000010000000000
0000001000000000
0000010000000000
0000001000000000
0000010000000000
0000001000000000
0000000000000000
0000000000000000
0000000000100000
0000000001000000
0000000000100000
0000000001000000
0000000000100000
0000000001000000
,
0000000000000000
0000001000000000
0000000000000000
0000000000110000
0000000000000000
0000010000000000
0000000000000000
0000000000000000
,
0000001000000000
0000000000000000
0000000000000000
0000001000000000
0000000000000000
0000000000000000
0100000000000000
0000000000000000
0000000000000000
0000001100000000
0000000000000000
0000000000000000
0000000000000000
0000000000000000
0000000000000000
0100000000000000
0000000000000000
0000000000000000
0000010000000000
0000000000000000
0010000000000000
0000000000000000
0000001000000000
0000000000000000
,
0100000000000000
0000010000000000
0010000000000000
0000001000000000
0000010000000000
0000000000100000
0000000001000000
0000000000000010
0000000000000100
0000000000100000
0000000000000010
0000000001000000
,
0000000000100000
0000010000000000
0010000000000000
0000001000000000
1100000000000000
0000000000000000
0000000000000000
0000000000000000
0000000000000000
0000000000000000
0000000000000000
0000000000000000
,
0000000000000000
0000000000000000
0000000000000000
0000000000000000
,
0000010000100000
0000000000000000
0000000000000000
0000000000000000
0000000000000000
0000000000000000
0000000000000000
0000000000000000
0000010000100000
0000000000000000
0000000000000000
0000000000000000
0000000000000000
0000000000000000
0000000000000000
0000000000000000
0000000000000000
0000000000000000
0000001000100000
0000000000000000
0000000000000000
0000000000000000
0000000000000000
0000000000000000
0000010001000000
0000000000000000
0000000000000000
0000000000000000
0000000000000000
0000000000000000
0000001001000000
0000000000000000
0000000000000000
0000000000000000
0000000000000000
0000000000000000
0000000000000000
0000000000000000
0000000000000000
0000001001000000
0000000000000000
0000000000000000
0000000000000000
0000000000000000
0000000000000000
0000000000110000
0000000000000000
0000000000000000
,
0000000000000000
0000000000000000
0000000000000000
0000000000010100
0000000000000000
0000000000000000
0000000000000000
0000000000000000
0000000000000000
0000000000000000
0000000011110111
0000000000000000
0000000000000000
0000000000000000
0000000000000000
0000000000000000
;
