#TITLE:Summer of Love;
#SUBTITLE:;
#ARTIST:룰라;
#TITLETRANSLIT:;
#SUBTITLETRANSLIT:;
#ARTISTTRANSLIT:Roo'Ra;
#GENRE:;
#CREDIT:locuuraa;
#LYRICSPATH:;
#MUSIC:Summer of Love.ogg;
#OFFSET:-0.160;
#SAMPLESTART:12.020;
#SAMPLELENGTH:12.000;
#SELECTABLE:YES;
#BPMS:0.000=125.000;
#STOPS:;
#KEYSOUNDS:;
#BANNER:Summer of Love.png;
#BACKGROUND:Summer of Love.png;
#CDTITLE:../CDTitles/4DSS.png;
#BGCHANGES:-14.700=Summer of Love.avi=1.000=0=0=1,
229.000=Summer of Love.png=1.000=0=0=1,
99999=-nosongbg-=1.000=0=0=0
;
#NOTES:
     ds3ddx-double:
     Club:
     Easy:
     4:
     :
0000000000000000
0000000000000000
0000000000000000
0000000000000000
,
0000000000000000
0000000000000000
0010000000000000
0000000000000000
,
0000000000000000
0000000000000000
0000001000000000
0000000000000000
,
0000000000000000
0000000000000000
0000000000100000
0000000000000000
,
0000000000000000
0000000000000000
0000000000000010
0000000000000000
,
0000000000000000
0000000000000000
0000000010000001
0000000000000000
,
0000000000010000
0000000000010000
0000000100000000
0000000000000000
,
0001000000000000
0001000000000000
1000000100000000
0000000000000000
,
1000000000000000
0001000000000000
1000000100000000
0000000000000000
,
0000000100000000
0001000000000000
1000000100000000
0000000000000000
,
0010000000000000
0010000000000000
1000000100000000
0000000000000000
,
0000010000000000
0000010000000000
1000000100000000
0000000000000000
,
0000000000100000
0000000001000000
0000000010000001
0000000000000010
,
0000000001000000
0000000000000000
0000000000010000
0000000000010000
,
0000000001000000
0000000000100000
0000010000000000
0001000000000000
,
0010000000000000
0001000000000000
0000010000000000
0000000100000000
,
0000010000000000
0000000100000000
0010000000000000
1000000000000000
,
0010000000000000
1000000000000000
0000010000000000
0000000010000000
,
0000001000000000
0000010000000000
0000000000110000
0000000001000000
,
0000000000000010
0000000000010000
0000000000100000
0000000010000000
,
0000000000100000
0000000010000000
0000000001000000
0000010000000000
,
0000010000000000
0000001000000000
0000010000000000
0000000000000000
1000000100000000
0000000000000000
0000000000000000
0000000000000000
,
0000000000000000
0001000000000000
0001000000000000
0000000000000000
1000000100000000
0000000000000000
0000000000000000
0000000000000000
,
0000000000000000
0001000000000000
0001000000000000
0000000000000000
0010000000000000
0000000000000000
0000001000000000
0000000000000000
,
0010000000000000
0010000000000000
0000010000000000
0100000000000000
,
0000010000000000
0000010000000000
0000001000000000
0000000000100000
,
0000000001000000
0000000100000000
0000000000000010
0000000001000000
,
0000000000000000
0000000000010000
0000000010000000
0000000000000000
0000000000000100
0000000000000000
0000000000000010
0000000000000000
,
0000000001000000
0000000000100000
0000010000000000
0000001000000000
,
0010000000000000
0100000000000000
0010000000000000
0000000000000000
0001000000000000
0000000000000000
0000000000000000
0000000000000000
,
0000000100000000
0000000000000000
0000000000010000
0000000000010000
,
0000000000000001
0000000000000000
0000000000100000
0000000000100000
,
0000000000000010
0000000100000000
0000000001000000
0000000001000000
,
0001000000000000
0000000100000000
0000010000000000
0100000000000000
,
0000010000000000
0000001000000000
0100000000000000
0000001000000000
,
0100000000000000
0000010000000000
0000001000000000
0000001000000000
,
0000000000000000
0000010000000000
0000000000100000
0000000000000000
,
0000001000000000
0000000000000000
0000000000000000
0000000000000000
0000000000000000
0000000000000000
0000000000000000
0000000000000000
0000000000000000
0000000000000000
0000000000000000
0000000000000000
0010000000000000
0000000000000000
0000000000000000
0000010000000000
0000000000000000
0000000000000000
0000000000000000
0000000000000000
0000001000000000
0000000000000000
0000000000000000
0000000000000000
,
0100000000000000
0000000000000000
0000000000000000
0000000000000000
0000000000000000
0000000000000000
0010000000000000
0000000000000000
0000000000000000
0000000000000000
0001000000000000
0000000000000000
0000000000000000
0000000000000000
0000000000000000
0011000000000000
,
0000000000000000
0000000000000000
0000000000000000
1000000000000000
0000000000000000
0000000000000000
0000000000000000
0001000000000000
0000000000000000
0000000000000000
0000000000000000
0001000000000000
0000000000000000
0000000000000000
0000000000000000
0000010000000000
,
0000000000000000
0000000000000000
0000000000000000
0000000100000000
0000000000000000
0000000000000000
0000000000000000
0010000000000000
0000000000000000
0000000000000000
0000000000000000
0000000000000000
0000001000000000
0000000000000000
0000000000000000
0000000000000000
,
0000010000000000
0000000000100000
0000000001000000
0000000000000011
,
0000000001000000
0000000000010100
0000000010000000
0000010000000000
,
0100000000000000
0000010100000000
0000010000000000
0100000000000000
,
0100000000000000
0000000000000000
0000000000000000
0000000000000000
0000001000000000
0000000000000000
0000000000000000
0000000000000000
0000010000000000
0000000000000000
0000000000000000
0000000000100000
0000000000000000
0000000000000000
0000000000000000
0000000000000000
,
0001010000000000
0000000000000000
0000000000000000
0000000000000000
0000000000100000
0000000000000000
0000000000000000
0000000000000000
0000001000000000
0000000000000000
0000000000000000
0000000010000000
0000000000000000
0000000000000000
0000000000000000
0000000000000000
,
0000010000000000
0000001000000000
0000010000000000
0000000000000000
0000000000100000
0000000000000000
0000000000000000
0000000000000000
,
0000000000000000
0000000000000000
0000000000000000
0000000000000000
0000000000000000
0000000000000000
0000000000000000
0000010000000000
0000000000000000
0000000000000000
0000000000000000
0000000000000000
0000000000000000
0000000000000000
0000000000000000
0000000000000000
,
0000000000000000
0000000000000000
0000000000000000
0000000000000000
0000000000000000
0000000000000000
0000000000000000
0100000000000000
0000000000000000
0000000000000000
0000000000000000
0000000000000000
0000000000000000
0000000000000000
0000000000000000
0000000000000000
,
0000000000000000
0000000000000000
0000000000000000
0000000000000000
0000000000000000
0000000000000000
0000000000000000
0000000001000000
0000000000000000
0000000000000000
0000000000000000
0000000000000000
0000000000000000
0000000000000000
0000000000000000
0000000000000000
,
0000000000000000
0000000000010000
0000000000000000
0000000000000000
0000000000000000
0000000000000000
0000000000000000
0000000000000000
0000000000000000
0000000000000000
0000000000000000
0000000000000000
0000000000000000
0000000000000000
0000000000000000
0000000000000000
;
#NOTES:
     ds3ddx-single:
     Hard:
     Medium:
     4:
     :
00000000
00000000
00000000
00000000
,
00000000
00000000
00100000
00000000
,
00000000
00000000
00000010
00000000
,
00000000
00000000
00000100
00000000
,
00000000
00000000
01000000
00000000
,
00000000
00000000
10000001
00000000
,
00010000
00010000
10000001
00000000
,
00010000
00010000
10000001
00000000
,
10000000
00010000
10000001
00000000
,
00000001
00010000
10000001
00000000
,
00100000
00100000
10000001
00000000
,
00000100
00000100
10000001
00000000
,
00000100
00100000
10000001
00000000
,
01000000
01000000
01000000
00000000
00000001
00000000
00000001
00000000
,
00000100
00010000
10000000
10000000
,
00100000
00010000
00000100
00000001
,
00000100
00000001
00100000
10000000
,
00100000
10000000
00000100
00000000
,
00100000
00010000
00100000
01000000
,
00000010
00010000
00100000
10000000
,
00100000
10000000
00000100
00010000
,
00000100
00000010
00000100
00000000
10000001
00000000
00000000
00000000
,
00000000
00010000
00010000
00000000
10000001
00000000
00000000
00000000
,
00000000
00010000
00010000
00000000
00100000
00000000
00000010
00000000
,
00100000
00100000
00000100
01000000
,
00000100
00000100
10000001
00000000
,
00000000
00010000
00000001
00000000
10000001
00000000
00000000
00000000
,
00000000
00010000
10000000
00000000
00000100
00000000
00000010
00000000
,
00000100
00000100
00100000
01000000
,
00100000
01000000
00100000
00000000
00010000
00000000
00000000
00000000
,
10000000
00000000
00010000
00010000
,
00000001
00000000
00000100
00000100
,
00010000
10000000
00100000
00100000
,
00010000
00000001
00000100
01000000
,
00000100
00000010
01000000
00000010
,
01000000
00000100
10000000
10000000
,
10000000
00010000
00000001
00000000
,
00000010
00000000
00000000
00000000
00000000
00000000
00000000
00000000
00000000
00000000
00000000
00000000
00100000
00000000
00000000
00000100
00000000
00000000
00000000
00000000
00000010
00000000
00000000
00000000
,
01000000
00000000
00000000
00000000
00000000
00000000
00100000
00000000
00000000
00000000
00010000
00000000
00000000
00000000
00000000
00110000
,
00000000
00000000
00000000
10000000
00000000
00000000
00000000
00010000
00000000
00000000
00000000
00010000
00000000
00000000
00000000
00000100
,
00000000
00000000
00000000
00000001
00000000
00000000
00000000
00100000
00000000
00000000
00000000
00000001
00000000
00000000
00000000
00100000
,
00000000
00000000
00000000
00000001
00000000
00000000
00000000
00000100
00000000
00000000
00000000
10000000
00000000
00000000
00000000
00000100
,
00000000
00000000
00000000
10000000
00000000
00000000
00000000
01000000
00000000
00000000
00000000
00000000
00000000
00000000
00000000
00000100
,
00000000
00000000
00000000
00010000
00000000
00000000
00000000
00000100
00000000
00000000
00000000
00000010
00000000
00000000
00000000
01000000
,
00000000
00000000
00000000
00000001
00000000
00000000
00000000
00000010
00000000
00000000
00000000
10000000
00000000
00000000
00000000
00000010
,
00000000
00000000
00000000
10000000
00000000
00000000
00000000
01000000
00000000
00000000
00000000
00000001
00000000
00000000
00000000
00100000
,
00000000
01000000
00000000
00100000
00000000
00000000
00000000
00000010
00000000
00000000
00000000
00000000
00000000
00000000
00000000
00000000
,
00000000
00000000
00000000
00000000
00000000
00000000
00000000
00100000
00000000
00000000
00000000
00000000
00000000
00000000
00000000
00000000
,
00000000
00000000
00000000
00000000
00000000
00000000
00000000
01000000
00000000
00000000
00000000
00000000
00000000
00000000
00000000
00000000
,
00000000
00000000
00000000
00000000
00000000
00000000
00000000
00000100
00000000
00000000
00000000
00000000
00000000
00000000
00000000
00000000
,
00000000
00010000
00000000
00000000
00000000
00000000
00000000
00000000
00000000
00000000
00000000
00000000
00000000
00000000
00000000
00000000
;
