#TITLE:Steal Away;
#SUBTITLE:;
#ARTIST:박지윤;
#TITLETRANSLIT:;
#SUBTITLETRANSLIT:;
#ARTISTTRANSLIT:Park Ji-yoon;
#GENRE:;
#CREDIT:locuuraa;
#LYRICSPATH:;
#MUSIC:Steal Away.ogg;
#OFFSET:1.000;
#SAMPLESTART:11.600;
#SAMPLELENGTH:12.000;
#SELECTABLE:YES;
#BPMS:0.000=105.000;
#STOPS:;
#KEYSOUNDS:;
#BANNER:Steal Away.png;
#BACKGROUND:Steal Away.png;
#CDTITLE:../CDTitles/4DSS.png;
#BGCHANGES:-14.700=Steal Away.avi=1.000=0=0=1,
229.000=Steal Away.png=1.000=0=0=1,
99999=-nosongbg-=1.000=0=0=0
;
#NOTES:
     ds3ddx-single:
     Hard:
     Medium:
     4:
     :
00000000
00000000
00000000
00000000
,
00000000
00000000
00000000
00000000
,
00000000
00000000
00110000
00000000
,
00010100
00000000
01000000
01000000
,
00000010
01000000
00000011
00000000
01000000
00000000
01000000
00000000
,
00000011
01000000
00000010
00000000
00000010
00000000
00000010
00000000
,
11000000
00000010
01000000
00000000
00010100
00000000
00000011
00000000
,
00000011
00000000
10100000
00000000
00000100
00000010
01000000
01000000
,
00000100
00100000
11000001
00000000
00010100
00000000
00110000
00000000
,
01000000
00000010
00010100
00110000
,
01000000
00000010
00010100
00000000
,
00010100
00010100
00110000
00000000
,
00110000
00000000
00110000
00000000
00000100
00000010
00100000
00000000
,
00100000
01000000
00000100
00000000
00000100
00000100
11000000
00000000
,
00000010
01000000
00000011
00000000
00000010
00000000
00000010
00000000
,
01000000
00000000
00000010
00000000
01000000
01000000
00000100
00000100
,
00100000
00000010
11000001
00000000
00100100
00100100
01010000
00000000
,
00100100
00100100
00010010
00000000
00100100
00100100
11000000
00000000
,
00100100
00100100
00000011
00000000
01000000
00000000
00000100
00000000
,
01000100
00010000
01000100
00000000
00000010
00000000
00100000
00000000
,
00100010
00010000
00100010
00000000
00100000
00000000
00100000
00000000
,
00100000
00100000
00000100
00000100
,
00000100
00000100
01000000
00000000
,
00000010
00000000
00000000
00000000
00000010
00000100
00100000
01000000
,
00000010
01000000
01000000
00000000
00010100
00000000
00000011
00000000
,
00110000
11000000
00000100
00000010
,
00100000
01000000
00000010
00000010
,
01000000
01000000
00000010
00000010
,
01000000
01000000
00000010
00000100
,
00000010
00001100
00100000
01000000
,
00100000
00000000
01010000
00000000
00000010
00000010
00000010
00000000
,
00000010
00000010
00000010
00000000
00000100
00000000
00000100
00000000
,
00000010
01000000
10000010
00000000
00100000
00000000
00100000
00000000
,
00000100
01000000
00000010
00000000
00000100
00000000
00100000
00000000
,
00000010
00100000
00000100
00000000
00100000
01000000
00010010
00000000
,
00000100
00000010
01000001
00000000
00000100
00100000
01000000
00000010
,
00000100
00100000
00000010
00000000
11000011
00000000
00000010
00000000
,
00100000
00000100
00100000
00000000
00000100
00010000
01000000
00000000
,
00000100
00010000
01000000
00000000
01000000
00100000
00000100
01000000
,
01000000
00000010
00000100
00000000
00000010
00000000
00000100
00000000
,
01000000
00000111
00000000
00000000
;
#NOTES:
     ds3ddx-double:
     Club:
     Easy:
     4:
     :
0000000000000000
0000000000000000
0000000000000000
0000000000000000
,
0000000000000000
0000000000000000
0000000000000000
0000000000000000
,
0000000000000000
0000000000000000
0000101000000000
0000000000000000
,
0000000000110000
0000000000000000
0000001000000000
0000001000000000
,
0000000000100000
0000000001000000
0000000000000011
0000000000000000
0000000001000000
0000000000000000
0000000001000000
0000000000000000
,
0000000000000010
0000000001000000
0000000000000011
0000000000000000
0000001000000000
0000000000000000
0000001000000000
0000000000000000
,
0100000000000000
0000001000000000
1100000000000000
0000000000000000
0000010000000000
0000000000000000
0000001000000000
0000000000000000
,
0000000000100000
0000000000000000
0000000001000000
0000000000000000
0000000000000100
0000000000000010
0000000001000000
0000000001000000
,
0000000000000100
0000000000100000
0000000011000001
0000000000000000
0000010000000000
0000000000000000
0000001000000000
0000000000000000
,
0000000001000000
0000000000100000
0000010000000000
0000001000000000
,
0000000001000000
0000000000100000
0000000000110000
0000000000000000
,
0000000000110000
0000000000110000
0000101000000000
0000000000000000
,
0000101000000000
0000000000000000
0000101000000000
0000000000000000
0000010000000000
0000001000000000
0010000000000000
0000000000000000
,
0010000000000000
0100000000000000
0000010000000000
0000000000000000
0000010000000000
0000010000000000
1100000000000000
0000000000000000
,
0000001000000000
0100000000000000
0000001100000000
0000000000000000
0000000001000000
0000000000000000
0000000001000000
0000000000000000
,
0000000000000010
0000000000000000
0000000001000000
0000000000000000
0000000000100000
0000000000100000
0000010000000000
0000010000000000
,
0000000000100000
0000001000000000
0000000001010000
0000000000000000
0000010000100000
0000010000100000
0001001000000000
0000000000000000
,
0000010000100000
0000010000100000
0000000001010000
0000000000000000
0000010000100000
0000010000100000
0000000001010000
0000000000000000
,
0000010000100000
0000010000100000
0001001000000000
0000000000000000
0100000000000000
0000000000000000
0000010000000000
0000000000000000
,
0100010000000000
0001000000000000
0100010000000000
0000000000000000
0000001000000000
0000000000000000
0010000000000000
0000000000000000
,
0010001000000000
0001000000000000
0010001000000000
0000000000000000
0000000000100000
0000000000000000
0000000000100000
0000000000000000
,
0000000000100000
0000000000100000
0000010000000000
0000010000000000
,
0000010000000000
0000010000000000
0100000000000000
0000000000000000
,
0000001000000000
0000000000000000
0000000000000000
0000000000000000
0000000001000000
0000000000100000
0000010000000000
0000001000000000
,
0000000001000000
0000001000000000
0000001000000000
0000000000000000
0011000000000000
0000000000000000
1100000000000000
0000000000000000
,
0001010000000000
0000001100000000
0010000000000000
0100000000000000
,
0000010000000000
0000001000000000
0000010000000000
0000010000000000
,
0000000001000000
0000000001000000
0000001000000000
0000001000000000
,
0000000001000000
0000000001000000
0000000001000000
0000000000100000
,
0000000001000000
0000000000101000
0000010000000000
0000001000000000
,
0000010000000000
0000000000000000
0001001000000000
0000000000000000
0000000001000000
0000000001000000
0000000001000000
0000000000000000
,
0000000001000000
0000000001000000
0000000001000000
0000000000000000
0000010000000000
0000000000000000
0000010000000000
0000000000000000
,
0100000000000000
0000001000000000
0100000100000000
0000000000000000
0010000000000000
0000000000000000
0010000000000000
0000000000000000
,
0000010000000000
0100000000000000
0000001000000000
0000000000000000
0000010000000000
0000000000000000
0000000000100000
0000000000000000
,
0000000001000000
0000000000000100
0000000000100000
0000000000000000
0000000000000100
0000000000000010
0000000001010000
0000000000000000
,
0000000000100000
0000000001000000
0000000010000010
0000000000000000
0000000000100000
0000010000000000
0010000000000000
0100000000000000
,
0000001000000000
0010000000000000
0000001000000000
0000000000000000
1100001100000000
0000000000000000
0000001000000000
0000000000000000
,
0000010000000000
0000000000100000
0000010000000000
0000000000000000
0000000000000100
0000000000010000
0000000001000000
0000000000000000
,
0000000000000100
0000000000010000
0000000001000000
0000000000000000
0000000001000000
0000000000100000
0000000000000100
0000000001000000
,
0000000001000000
0000000000000010
0000000000000100
0000000000000000
0000000000100000
0000000000000000
0000001000000000
0000000000000000
,
0000010000000000
1101000000000000
0000000000000000
0000000000000000
;
