#TITLE:Stan;
#SUBTITLE:;
#ARTIST:Eminem ft. Dido;
#TITLETRANSLIT:;
#SUBTITLETRANSLIT:;
#ARTISTTRANSLIT:;
#GENRE:;
#CREDIT:locuuraa;
#LYRICSPATH:;
#MUSIC:Stan.ogg;
#OFFSET:0.780;
#SAMPLESTART:11.720;
#SAMPLELENGTH:12.000;
#SELECTABLE:YES;
#BPMS:0.000=80.090;
#STOPS:;
#KEYSOUNDS:;
#BANNER:Stan.png;
#BACKGROUND:Stan.png;
#CDTITLE:../CDTitles/4DSS.png;
#BGCHANGES:-14.700=Stan.avi=1.000=0=0=1,
229.000=Stan.png=1.000=0=0=1,
99999=-nosongbg-=1.000=0=0=0
;
#NOTES:
     ds3ddx-single:
     Hard:
     Medium:
     4:
     :
00000000
00000000
00000000
00000000
,
00000000
00000000
00000000
00000000
,
00000000
00000000
00000000
00100000
,
00010000
01000000
00000001
00000100
,
00010000
00000010
10000000
01000000
,
00010000
00000010
10000000
00000100
,
00100000
01000000
00000100
00100001
,
00100000
10000100
01000000
10000010
,
00000010
00000000
01000001
00000000
00000100
00000010
10000100
00000000
,
00100000
00000100
00100001
00000000
00100000
01000000
00100001
00000000
,
01000000
00000010
01000001
00000000
00000010
00000010
11000000
00000000
,
00000100
00100000
10000010
00000000
01000000
01000000
00000011
00000000
,
00100000
00000100
01000001
00000000
00100000
00000100
01010000
00000000
,
00000010
00100000
00010100
00000000
00100000
00000100
00100001
00000000
,
00000010
01000000
10000010
00000000
00100000
00100000
11000000
00000000
,
00000100
00000100
00000011
00000000
00100000
00000000
01000000
00000000
,
00000010
00000000
00000100
00000000
00100000
00000100
01010000
00000000
,
00000100
00100000
00010010
00000000
00000100
00000010
10000100
00000000
,
00100000
00000100
00100001
00000000
00100000
01000000
00100001
00000000
,
01000000
00000010
01000001
00000000
00000010
00000010
11000000
00000000
,
00000100
00100000
10000010
00000000
01000000
01000000
00000011
00000000
,
00100000
00000100
01000001
00000000
00100000
00000100
01010000
00000000
,
00000010
00100000
00010100
00000000
00100000
00000100
00100001
00000000
,
00000010
01000000
10000010
00000000
00100000
00100000
11000000
00000000
,
00000100
00000100
10000001
00000000
00000100
00100000
00010010
00000000
,
00100000
00000100
01010000
00000000
00100000
01000000
00100001
00000000
,
00000100
00100000
10000100
00000000
00000100
00000010
10000100
00000000
,
00000010
01000000
10000010
00000000
01000000
01000000
00000011
00000000
,
00100000
00000100
01000001
00000000
00000010
00000010
11000000
00000000
,
00000100
00100000
10000010
00000000
00000100
00100000
00010010
00000000
,
01000000
00000100
00110000
00000000
00000100
00100000
10000100
00000000
,
01000000
00000010
01000001
00000000
00000100
00000100
00000011
00000000
,
00100000
00100000
10000001
00000000
00100000
00000101
00000000
00000000
;
