#TITLE:Sweet Dream;
#SUBTITLE:;
#ARTIST:张娜拉;
#TITLETRANSLIT:;
#SUBTITLETRANSLIT:;
#ARTISTTRANSLIT:Jang Na-Ra;
#GENRE:;
#CREDIT:locuuraa;
#LYRICSPATH:;
#MUSIC:Sweet Dream.ogg;
#OFFSET:0.720;
#SAMPLESTART:11.980;
#SAMPLELENGTH:12.000;
#SELECTABLE:YES;
#BPMS:0.000=96.000;
#STOPS:;
#KEYSOUNDS:;
#BANNER:Sweet Dream.png;
#BACKGROUND:Sweet Dream.png;
#CDTITLE:../CDTitles/4DSS.png;
#BGCHANGES:-14.700=Sweet Dream.avi=1.000=0=0=1,
229.000=Sweet Dream.png=1.000=0=0=1,
99999=-nosongbg-=1.000=0=0=0
;
#NOTES:
     ds3ddx-double:
     Club:
     Easy:
     4:
     :
0000000000000000
0000000000000000
0000000000000000
0000000000000000
,
0000000000000000
0000000000000000
1000000100000000
0000000000000000
,
0000000100000000
0001000000000000
0010000100000000
0000000000000000
,
1000000000000000
0000000100000000
1000000100000000
0001000000000000
,
0001000000000000
1000000000000000
0000001000000000
0000000000000000
,
0000000000100000
0000000000000100
0000000011000000
0000000000000001
,
0000000010000000
0000000000000000
0000000000010000
0000000010000000
0000000000000011
0000000000000000
0000000001000000
0000000000000000
,
0000000000100000
0000010000000000
0000001000000000
0000000000000000
,
0000000000000000
0000000000000000
0100000000000000
0100000000000000
,
0000010100000000
0100000000000000
0000001000000000
0000010000000000
,
0000000000100000
0000000001000000
0000010000000000
0000001000000000
,
0100000000000000
0000001000000000
0010010000000000
1000000100000000
,
0000000000100000
0000000000000000
0000010000000000
0000000000100000
0000010000000000
0000000000000000
0000000001000000
0000000000000000
,
0000001000000000
0000000000000000
0000000001000000
0000001000000000
0000000001000000
0000000000000000
0000000000000101
0000000000000000
,
0000000010100000
0000000001000000
0000000010000001
0000000000011000
,
0000000000100000
0000000000000010
0000000001000010
0000000000100000
,
0000000001000000
0000001000000000
0000000000100000
0001000000000000
,
0000001000000000
0000001000000000
0010000000000000
0001010000000000
,
1100000000000000
0000000100000000
1000000000000000
0001000000000000
,
0001000000000000
0000001000000000
0000010000000000
0100000000000000
,
0000001000000000
0000010000000000
0000000000100000
0000000001000000
,
0000000000000100
0000000000100000
0000000000000001
0000000000010000
,
0000000010100000
0000010000000000
0000001000000000
0010000000000000
,
0000001000000000
0100000000000000
0000001100000000
0100000000000000
,
0000001000000000
0000010000000000
0000000001000000
0000010000000000
,
0000000000100000
0000001001000000
0000000000000100
0000000010000000
,
0000000000010000
0000000000000001
0000000000011000
0000000010100000
,
0000000000000010
0000000001000000
0000010000000000
0000001000000000
,
0010000000000000
0000010100000000
1100000000000000
0000000100000000
,
1000000000000000
0000000000000000
0000001000000000
1000000000000000
0001010000000000
0000000000000000
0100000000000000
0000000000000000
,
0000001000000000
0010000000000000
0001010100000000
0000010000000000
,
0000001000000000
0000000000000000
1000000100000000
0000000000000000
0000010000000000
0000000000000000
0000000000100000
0000010000000000
,
0000000000100000
0000010000000000
0000000001000000
0000000000000000
0000010000000000
0000000000000000
0001000000000000
0000000000000000
,
0000000100000000
0001000000000000
1000000000000000
0000000100000000
,
0000010000000000
0010000000000000
0000010000000000
0010000000000000
0000001100000000
0000000000000000
1100000000000000
0000000000000000
,
0010000000000000
0000001000000000
0000010000000000
0000000000000000
0000000000100000
0000000000000000
0000000001000000
0000000000000000
,
0000000000000010
0000000001000000
0000000000010000
0000000010000000
,
0000000000000010
0000000000010000
0000000000100000
0000000001000000
,
0000010000000000
0000001000000000
0000000000100000
0000001000000000
,
0000000001000000
0000000000000000
0000010000000000
0000000000000000
0000001000000000
0000000000000000
0010000000000000
0000010000000000
,
0010000000000000
0000001000000000
1100000000000000
0000000000000000
0000001100000000
0000000000000000
0100000000000000
0000000000000000
,
0000001000000000
1010000000000000
0000010100000000
0101000000000000
,
0000001000000000
0001001000000000
0100000000000000
0000000100000000
;
#NOTES:
     ds3ddx-single:
     Hard:
     Medium:
     4:
     :
00000000
00000000
00000000
00000000
,
00000000
00000000
10000001
00000000
,
00000001
00010000
00100001
00000000
,
10000000
00000001
10000001
00010000
,
00010000
10000000
00001010
00000000
,
00000001
10000000
00010100
00000001
,
10000000
00000000
00010000
10000000
00000011
00000000
01000000
00000000
,
00000010
00000000
00010100
11000000
00000010
00000000
00000000
00000000
,
00000000
00000000
01000000
01000000
,
00000101
01000000
00000010
00010100
,
10000000
00000010
00000001
00010000
,
01000000
00000010
00100100
10000001
,
00010000
00000000
00100000
00000100
00100000
00000000
00000101
00000000
,
10100000
00000000
00000010
01000000
00000010
00000000
11000000
00000000
,
00000011
00000000
01000000
00000010
00110000
00000000
00000101
00000000
,
11000000
00000000
00000010
00000000
01000010
00000000
00000100
00100000
,
00000010
01000000
00000100
00100000
00000101
00000000
01000000
00000000
,
01000000
00000000
00000010
01000000
00000010
00000000
00010100
00000000
,
11000000
00000001
10000000
00010000
,
00001000
00000000
00000010
01000000
00000101
00000000
01000000
01000000
,
00000010
01000000
00010100
01000000
00000011
00000000
00100000
00000000
,
00000100
00000000
00100000
00000100
00001010
00000000
01000000
00000000
,
00000011
00010100
11000011
00000100
,
00000010
00000000
01000000
00000000
00000011
00000000
01000000
00000010
,
00100000
00000100
01000000
00000010
11000000
00000000
00010100
00000000
,
00100000
00000000
01001000
00000000
00000010
00000000
01000000
00000100
,
00100000
00000010
01000000
00000100
10100000
00000000
00000011
00000000
,
11000000
00000000
00000100
00000010
00010100
00000000
00100000
00000010
,
01000000
00000100
01000000
00000010
11000000
00000000
00000001
00000000
,
10000000
00000000
00000010
10000000
00010100
00000000
01000000
01000000
,
00000010
00000000
00100000
00000000
00010101
00000000
00000100
00100000
,
00000010
00000000
10000001
00000000
00110000
00000000
00000100
00100000
,
00000100
00100000
00000010
01000000
00000101
00000000
10000000
00000000
,
00000001
00000000
00010000
00000000
10000011
00000000
00000010
01000000
,
00000100
00100000
00000100
00100000
00000011
00000000
11000000
00000000
,
00100000
00000010
01000000
00000000
00000011
00000000
00100000
00100000
,
00000010
01000000
00010100
00000010
01000000
00000000
00010100
00000000
,
00001010
00000000
01000000
00000011
00000000
00000000
01000000
00000010
,
00110000
00000100
11000000
10000001
,
00011000
00000000
01000000
00000000
00000010
00000000
00000100
00100000
,
00000100
01000000
00000010
00100000
00000011
00000000
01000000
00000000
,
00000010
10100000
00000101
01010000
,
00000010
00010010
01000000
00000001
;
#NOTES:
     ds3ddx-single:
     Easy:
     Easy:
     3:
     :
00000000
00000000
00000000
00000000
,
00000000
00000000
10000001
00000000
,
00000001
00010000
00100001
00000000
,
10000000
00000000
10000001
00010000
,
00010000
00000000
00001010
00000000
,
00000001
10000000
00000100
00000001
,
10000000
00010000
10000001
01000000
,
00000010
00010100
00000010
10000000
,
00000000
00000000
01000000
01000000
,
00000101
01000000
00000010
00010100
,
10000000
00000010
00000001
00010000
,
01000000
00000010
00010000
10000001
,
00010000
00100000
00000100
11000000
,
00000011
00000010
00000010
01000000
,
00000010
01000000
00110000
00000101
,
10000000
00000001
00011000
00000000
,
00000010
00100000
00000101
01000000
,
01000000
00000000
00000010
01000000
00000010
00000000
00010100
00000000
,
10000000
00000001
10000000
00010000
,
10000000
00000000
00000001
00010000
10000000
00000000
01000000
00000000
,
00000010
00000000
00010100
01000000
00000010
00000000
00100000
00000000
,
00000100
00100000
10000010
01000000
,
00000011
00010100
11000011
00000100
,
00000010
01000000
00000011
01000000
,
00100000
00000100
00000010
00010000
,
00100000
10000000
00000001
01000000
,
00000100
00000010
10000000
00000001
,
10000000
00010000
00010000
00100000
,
01000000
01000100
00100000
00100010
,
10000000
00000000
00000001
10000000
00010000
00000000
01000000
00000000
,
00000010
00100000
00010001
00000100
,
10010000
10000001
00010000
00000100
,
10000000
00100000
00000101
10000000
,
00000001
00010000
10000001
00000010
,
01000000
00000100
01000010
11000000
,
00100000
00000000
01000000
00000000
00000001
00000000
00100000
00100000
,
00000010
01000000
00000100
00000000
01000000
00000000
00010000
00000000
,
10000000
01000000
00000011
00010000
,
10000000
00010000
10000001
10000001
,
00011000
01000000
00000010
00000100
,
00100000
01000000
00000010
10000000
,
00000001
10100000
00000101
00010000
,
00000010
00000010
01000000
00000001
;
