#TITLE:SHADOW;
#SUBTITLE:;
#ARTIST:K-POP;
#TITLETRANSLIT:;
#SUBTITLETRANSLIT:;
#ARTISTTRANSLIT:;
#GENRE:;
#CREDIT:locuuraa;
#LYRICSPATH:;
#MUSIC:SHADOW.ogg;
#OFFSET:2.120;
#SAMPLESTART:10.940;
#SAMPLELENGTH:12.000;
#SELECTABLE:YES;
#BPMS:0.000=114.990;
#STOPS:;
#KEYSOUNDS:;
#BANNER:SHADOW.png;
#BACKGROUND:SHADOW.png;
#CDTITLE:../CDTitles/4DSS.png;
#BGCHANGES:-14.700=SHADOW.avi=1.000=0=0=1,
229.000=SHADOW.png=1.000=0=0=1,
99999=-nosongbg-=1.000=0=0=0
;
#NOTES:
     ds3ddx-single:
     Hard:
     Medium:
     5:
     :
00000000
00000000
00000000
00000000
,
00000000
00000000
00000000
00000000
,
00000000
00000000
00000000
00000000
,
00000000
00000000
00000000
00000000
,
00000000
00000000
00000000
00000000
,
00000000
00000000
00000000
00000000
,
00000000
00000000
00000000
00000000
,
00000000
01000010
00000000
00000000
,
00000000
00000000
00000000
00000000
,
00000000
01000000
00000000
00000000
,
00000000
00000100
00000000
00100000
,
00000000
00100100
00000001
01000000
,
00000100
00010000
00000000
00000000
,
00100001
00000100
00100000
00000100
,
00100000
10000101
00000100
10100001
,
00100000
00000100
00100000
00000010
,
01000000
00000000
10100101
00000000
10100101
00000000
00100000
01000000
,
00000000
00000010
00010010
00000000
,
11000011
10100000
11000000
00000000
,
10000001
00000000
11000000
00000000
10100000
00000000
10000100
10000000
,
10000000
00000000
10100100
00000000
00000100
00100000
00010000
00000000
,
11000001
10100001
01000000
00000100
,
00110000
00110100
00010000
00010000
,
00010000
00010000
00010000
00010000
,
00010000
00100000
00000000
00000000
,
00000000
00000000
00000000
00000000
,
10100000
01000000
01000000
00000010
,
00000010
00110000
00010100
10100101
,
00010000
00000100
00000001
00010000
,
00010000
00000000
10000000
00000000
,
10100101
00010000
00100000
00000000
,
00000000
10000001
00010000
10000001
,
00010000
10000101
10100001
10000101
,
00110100
00000000
10000001
00000000
10000000
00000000
00000001
10000000
,
00010000
00100100
00100100
00100100
,
00100100
00000101
10100000
10010000
,
10010000
00100000
00000000
10100000
,
10100000
00000000
00000000
00000000
,
00000000
00000000
00000000
00000000
,
00000000
00000000
00000000
00000000
00000000
00000000
00000000
00010000
,
00000000
00000000
00000100
00100000
00100100
00000000
00100100
00000000
,
00000000
00000101
10100000
10100101
,
00010000
00010000
00000101
01000000
,
00100000
10000000
00000000
00000000
,
00010000
00000100
00000100
00100100
,
00000000
10000101
10000001
10000001
,
00000000
10000001
10000001
10000001
,
00000000
10000001
00010000
00010000
,
10000101
00000000
00010000
00000000
00100000
01000000
00000100
00000000
,
01000000
00000100
00000000
00000000
,
00000000
00000000
00000000
00000000
,
00000000
00000000
00000000
00110000
,
01001000
00000000
10000000
00100000
00100100
00000000
00000000
00000000
,
10000000
00100000
00000000
00000000
00000000
00000000
00000000
00000000
;
#NOTES:
     ds3ddx-single:
     Easy:
     Easy:
     3:
     :
00000000
00000000
00000000
00000000
,
00000000
00000000
00000000
00000000
,
00000000
00000000
00000000
00000000
,
00000000
00000000
00000000
00000000
,
00000000
00000000
00000000
00000000
,
00000000
00000000
00000000
00000000
,
00000000
00000000
00000000
01000010
,
00000000
00000000
00000000
00000000
,
00000000
00000000
00000000
01000000
,
00000000
00000000
00000000
00000100
,
00000000
00100000
00000000
00000100
,
00000000
01000000
00000000
00010000
,
00000000
00000000
00100000
00000000
,
00100000
00000000
00000100
00000000
,
00100000
00000000
00010000
00000000
,
00000001
10000000
00000000
00100000
,
00100000
00000100
00000000
01000000
,
01000000
00000000
01000010
00000000
,
01000000
00000000
10000001
00000000
,
00100000
00000000
10000000
00000000
,
00000100
00000000
01000000
00000000
,
00000100
00000000
00110000
00000000
,
00010000
00000000
00010000
00000000
,
00010000
00000000
00010000
00100000
,
00000000
00000000
00000000
00000000
,
00000000
00000000
00100000
00000000
,
01000000
00000000
00000010
00010000
,
00010000
00000000
00010000
00000100
,
00000001
00010000
00010000
00000000
,
10000000
00000000
00100100
00000000
,
00100000
00000000
00000000
10000001
,
00000000
10000001
00000000
00000100
,
00100000
00000000
00010000
00000000
,
10000000
00000000
00010000
00000000
,
00100100
00000000
00100000
00000101
,
10100000
00010000
00010000
00100000
,
00000000
10100000
10100000
00000000
,
00000000
00000000
00000000
00000000
,
00000000
00000000
00000000
00000000
,
00000000
00000000
00000000
00010000
00000000
00000000
00000100
00000000
,
00000100
00000100
00000000
00000101
,
10100000
00000000
00010000
00010000
,
00000001
00000000
00100000
10000000
,
00000000
00000000
00010000
00000000
,
00000100
00100100
00000000
00000100
,
00000000
10000001
00000000
00010000
,
00000000
00010000
00000000
10000001
,
00000000
00010000
00000100
00000000
,
00100000
00000100
01000000
00000100
,
00000000
00000000
00000000
00000000
,
00000000
00000000
00000000
00000000
,
00000000
00110000
00000000
10000000
,
00000100
00000000
00000000
00000000
10000000
00100000
00000000
00000000
;
#NOTES:
     ds3ddx-double:
     Club:
     Easy:
     5:
     :
0000000000000000
0000000000000000
0000000000000000
0000000000000000
,
0000000000000000
0000000000000000
0000000000000000
0000000000000000
,
0000000000000000
0000000000000000
0000000000000000
0000000000000000
,
0000000000000000
0000000000000000
0000000000000000
0000000000000000
,
0000000000000000
0000000000000000
0000000000000000
0000000000000000
,
0000000000000000
0000000000000000
0000000000000000
0000000000000000
,
0000000000000000
0000000000000000
0000000000000000
0100001000000000
,
0000000000000000
0000000000000000
0000000000000000
0000000000000000
,
0000000000000000
0000000000000000
0000000000000000
0100000000000000
,
0000000000000000
0000000000000000
0000000000000000
0000010000000000
,
0000000000000000
0010000000000000
0000000000000000
0010010000000000
,
0000000100000000
1100000000000000
0000010000000000
0001000000000000
,
0000000000000000
0000000000000000
0000000000100001
0000000000000100
,
0000000000100000
0000000000000100
0000000000100000
0000000010000101
,
0000000000000100
0000000010100001
0000000000100000
0000000000000101
,
0000000000100000
0000000000000010
0000000001000000
0000000010100101
,
0000000010000001
0000000000000000
0000000000100000
0000000001000000
0000000000000000
0000000000000000
0000000000000010
0000000000000000
,
0000000000010010
0000000000000000
1100001100000000
1010000000000000
,
1100000000000000
0000000000000000
1000000100000000
1100000000000000
,
1010000000000000
0000000000000000
1000010000000000
1000000000000000
1000000000000000
0000000000000000
1010010000000000
0000000000000000
,
0000010000000000
0010000000000000
0001000000000000
0000000000000000
1100000100000000
0000000000000000
1010000100000000
0000000000000000
,
0100000000000000
0000010000000000
0011000000000000
0011010000000000
,
0001000000000000
0001000000000000
0001000000000000
0001000000000000
,
0001000000000000
0001000000000000
0001000000000000
0010000000000000
,
0000000000000000
0000000000000000
0000000000000000
0000000000000000
,
0000000000000000
0000000000000000
0000000010100000
0000000001000000
,
0000000001000000
0000000000000010
0000000000000010
0000000000110000
,
0000000000010100
0000000010100101
0000000000010000
0000000000000100
,
0000000000100000
0001000000000000
0001000000000000
0000000000000000
,
1000000000000000
0000000000000000
1010010100000000
0001000000000000
,
0010000000000000
0000000000000000
0000000000000000
0000000010000001
,
0000000000010000
0000000010000001
0000000000010000
0000000010000101
,
0000000010100001
0000000010000101
0000000000110100
0000000010000001
,
0000000010000000
0000000000000000
0000000000000001
0000000010000000
0000000000010000
0000000000000000
0000010000100000
0000000000000000
,
0010010000000000
0010010000000000
0010010000000000
0000010100000000
,
1010000000000000
1001000000000000
1001000000000000
0010000000000000
,
0000000000000000
1010000000000000
1010000000000000
0000000000000000
,
0000000000000000
0000000000000000
0000000000000000
0000000000000000
,
0000000000000000
0000000000000000
0000000000000000
0000000000000000
,
0000000000000000
0000000000000000
0000000000000000
0000000000010000
0000000000000000
0000000000000000
0000000000000100
0000000000100000
,
0000000000100100
0000000000100100
0000000000000000
0000000000000101
,
0000000010100000
0000000010100101
0000000000010000
0000000000010000
,
0000000000000101
0000000001000000
0000000000100000
0000000010000000
,
0000000000000000
0000000000000000
0001000000000000
0000010000000000
,
0000010000000000
0010010000000000
0000000000000000
1000010100000000
,
1000000100000000
1000000100000000
0000000000000000
1000000100000000
,
1000000100000000
1000000100000000
0000000000000000
0000000010000001
,
0000000000010000
0000000000010000
0000000010000101
0000000000010000
,
0000000000100000
0000000001000000
0000000000000100
0000000000000000
0000000001000000
0000000000000000
0000000000000100
0000000000000000
,
0000000000000000
0000000000000000
0000000000000000
0000000000000000
,
0000000000000000
0000000000000000
0000000000000000
0000000000000000
,
0000000000000000
0000000000000000
0011000000000000
0000000000000000
0100100000000000
0000000000000000
1000000000000000
0010000000000000
,
0010010000000000
0000000000000000
0000000000000000
0000000000000000
1000000000000000
0010000000000000
0000000000000000
0000000000000000
;
