#TITLE:SAD DREAM;
#SUBTITLE:;
#ARTIST:高耀太;
#TITLETRANSLIT:;
#SUBTITLETRANSLIT:;
#ARTISTTRANSLIT:Gao Yaotai;
#GENRE:;
#CREDIT:locuuraa;
#LYRICSPATH:;
#MUSIC:SAD DREAM.ogg;
#OFFSET:2.100;
#SAMPLESTART:10.960;
#SAMPLELENGTH:12.000;
#SELECTABLE:YES;
#BPMS:0.000=140.020;
#STOPS:;
#KEYSOUNDS:;
#BANNER:SAD DREAM.png;
#BACKGROUND:SAD DREAM.png;
#CDTITLE:../CDTitles/4DSS.png;
#BGCHANGES:-14.700=SAD DREAM.avi=1.000=0=0=1,
229.000=SAD DREAM.png=1.000=0=0=1,
99999=-nosongbg-=1.000=0=0=0
;
#NOTES:
     ds3ddx-single:
     Hard:
     Medium:
     5:
     :
00000000
00000000
00000000
00000000
,
00000000
00000000
00000000
00000000
,
00000000
00000000
00000000
00000000
,
00000000
00000000
10100000
00000000
,
00000000
00000000
00000000
00000000
,
00000000
00000000
00000000
00000000
,
00000000
00000000
00000000
00000000
,
00000000
00000000
10000011
00000000
,
10000001
10000001
10000001
00000101
,
00000000
10100000
00000000
00000011
,
00000000
11000000
00000010
01000000
,
10000011
00000000
01010001
00000010
,
00010011
01000001
10000000
00000010
,
01000000
00100000
00000010
10000000
,
01000000
00000010
00000100
00100000
,
00100000
00000100
00000001
00000001
,
00000001
01000000
00100000
00100000
,
01000000
01000000
10100000
10100000
,
10010100
00000000
00100000
01000000
,
00000010
01000010
01000000
00000010
,
01000000
00000000
00000010
01000000
,
00000010
00000000
01000000
00000010
,
01000000
00000010
01000001
01000001
,
00100000
00100000
00000100
00110000
,
00100000
10000101
00100000
00100000
,
00000100
00100000
00000100
00010000
,
00100000
00010000
00010100
00000000
,
01000000
01000000
00000010
00000100
,
00000001
00000100
10000000
00100000
,
00000001
00000100
10000000
00100000
,
00100000
00100000
01011000
00000000
,
00000000
00000000
01000000
00000100
,
00100001
00000001
00100000
00000100
,
00100001
00000001
00000100
00000010
,
00010000
00000000
00000000
00010000
,
00000000
00000000
00000100
00000000
,
00000000
00000000
00100000
01000000
,
10000101
00000000
00000000
00000000
,
00000000
10000001
00000000
00000010
,
10000001
00100000
00010100
00000000
,
00000000
00000001
00000000
00000000
,
00100000
10000011
10000001
00000000
,
00000000
00000000
00000000
00110000
,
00000100
00000100
00010100
00000000
,
00010100
00000000
00100000
00100000
,
00000100
00000100
00110000
00000000
,
00110000
00000000
00110000
00000000
,
00000000
00000000
00110000
00000000
,
00110000
00000000
00000100
00000010
,
00010000
00000000
01000000
00000000
,
10000001
00000000
00010000
00010000
,
00100000
01000000
00010100
00000000
,
00010100
00000000
00100000
00110000
,
00000100
00010100
00110000
00000000
,
00010000
00000000
00110000
00000000
,
00000000
00000000
00110000
00000000
,
00000001
00000000
00000100
00000010
,
00010000
00000000
00100000
01000000
,
10000001
00000000
00000000
00000100
,
00000100
00000000
01010001
00000010
,
00010011
01000001
10000000
00000010
,
01000000
00100000
00000010
10000000
,
01000000
00000010
00000100
00100000
,
00100000
00000100
00000001
00000001
,
00000001
01000000
00100000
00100000
,
01000000
01000000
10100000
10100000
,
10010100
00000000
00100000
01000000
,
00000010
00000010
01100000
00000000
;
#NOTES:
     ds3ddx-single:
     Easy:
     Easy:
     4:
     :
00000000
00000000
00000000
00000000
,
00000000
00000000
00000000
00000000
,
00000000
00000000
00000000
00000000
,
10100000
00000000
00000000
00000000
,
00000000
00000000
00000000
00000000
,
00000000
00000000
00000000
00000000
,
00000000
00000000
00000000
00000000
,
10000010
00000000
10000001
00000000
,
10000001
00000100
00000000
00100000
,
00000000
00000001
00000000
01000000
,
00000010
00000000
00000011
00000000
,
00010000
00000000
00010000
00000000
,
10000000
00000000
01000000
00000000
,
00000010
00000000
01000000
00000000
,
00000100
00000000
00100000
00000000
,
00000001
00000000
00000001
00000000
,
00100000
00000000
01000000
00000000
,
00100000
00100000
00000100
00000000
,
00100000
00000000
00000000
01000010
,
00000000
00000010
01000000
00000000
,
00000010
01000000
00000010
00000000
,
01000000
00000010
01000000
00000000
,
00000001
00000001
00000000
00100000
,
00000000
00010000
00000000
10000001
,
00000000
00100000
00000000
00100000
,
00000000
00010000
00000000
00010000
,
00000000
00000000
01000000
00000000
,
00000010
00000000
00000001
00000000
,
10000000
00100000
00000001
00000100
,
10000000
00000000
00100000
00000000
,
01000000
00000000
00000000
00000000
,
01000000
00000000
00100001
00000000
,
00100000
00000000
00100001
00000000
,
00000100
00000000
00010000
00000000
,
00000000
00010000
00000000
00000000
,
00000100
00000000
00000000
00000000
,
00100000
00000000
10000001
00000000
,
00000000
00000000
00000000
10000001
,
00000000
00000010
00000000
00100000
,
00000000
00000000
00000000
00000001
,
00000000
00000000
00100000
00000011
,
10000000
00000000
00000000
00000000
,
00000000
00010000
00000000
00000100
,
00000000
00000000
00010100
00000000
,
00100000
00000000
00000100
00000000
,
00010000
00000000
00010000
00000000
,
00100000
00000000
00000000
00000000
,
00110000
00000000
00000000
00000000
,
00000100
00000000
00010000
00000000
,
01000000
00000000
10000001
00000000
,
00010000
00000000
00100000
00000000
,
00010100
00000000
00010000
00000000
,
00100000
00100000
00000100
00000100
,
00000000
00000000
00010000
00000000
,
00110000
00000000
00000000
00000000
,
00110000
00000000
00000001
00000000
,
00000100
00000000
00010000
00000000
,
00100000
00000000
10000001
00000000
,
00000000
00000100
00000000
00000000
,
00010000
00000000
00010000
00000000
,
10000000
00000010
00000000
00100000
,
00000000
10000000
00000000
00000010
,
00000100
00000000
00100000
00000000
,
00000001
00000000
00000001
01000000
,
00000000
00100000
01000000
00000000
,
10000000
00000000
00010100
00000000
,
00100000
00000000
00000010
00000000
,
00100000
00000000
00000000
00000000
;
#NOTES:
     ds3ddx-double:
     Club:
     Easy:
     5:
     :
0000000000000000
0000000000000000
0000000000000000
0000000000000000
,
0000000000000000
0000000000000000
0000000000000000
0000000000000000
,
0000000000000000
0000000000000000
0000000000000000
0000000000000000
,
1010000000000000
0000000000000000
0000000000000000
0000000000000000
,
0000000000000000
0000000000000000
0000000000000000
0000000000000000
,
0000000000000000
0000000000000000
0000000000000000
0000000000000000
,
0000000000000000
0000000000000000
0000000000000000
0000000000000000
,
1000001100000000
0000000000000000
1000000100000000
1000000100000000
,
1000000100000000
0000010100000000
0000000000000000
0000000000110000
,
0000000000000000
0000000000000011
0000000000000000
0000000011000000
,
0000000000000010
0000000001000000
0000000010000011
0000000000000000
,
0000000001010001
0000000000000010
0000000000010011
0000000001000001
,
0000000010000000
0000000000000010
0000000001000000
0000000000100000
,
0000000000000010
0000000010000000
0000000001000000
0000000000000010
,
0000000000000100
0000000000100000
0000000001000000
0000010000000000
,
0000000100000000
0000000100000000
0000000100000000
0100000000000000
,
0010000000000000
0010000000000000
0100000000000000
0100000000000000
,
1010000000000000
1010000000000000
1001010000000000
0000000000000000
,
0000001000000000
0000010000000000
0000000000100000
0000000001000010
,
0000000001000000
0000000000000010
0000000001000000
0000000000000000
,
0000010000000000
0000000000100000
0000001000000000
0000000000000000
,
0000000001000000
0000010000000000
0000001000000000
0000001000000000
,
0100000100000000
0100000100000000
0010000000000000
0010000000000000
,
0000010000000000
0011000000000000
0010000000000000
1000010100000000
,
0010000000000000
0010000000000000
0000010000000000
0010000000000000
,
0000010000000000
0001000000000000
0010000000000000
0001000000000000
,
0001010000000000
0000000000000000
0000000001000000
0000000001000000
,
0000000000000010
0000000000000100
0000000000000001
0000000000000100
,
0000000010000000
0000000000100000
0000000000000001
0000000000000100
,
0000000010000000
0000000000100000
0000000000100000
0000000000100000
,
0000000001011000
0000000000000000
0000000000000000
0000000000000000
,
0100000000000000
0000010000000000
0010000100000000
0000000100000000
,
0010000000000000
0000010000000000
0010000100000000
0000000100000000
,
0000010000000000
0000001000000000
0001000000000000
0000000000000000
,
0000000000000000
0001000000000000
0000000000000000
0000000000000000
,
0000000000000100
0000000000000000
0000000000000000
0000000000000000
,
0000000000100000
0000000001000000
0000000010000101
0000000000000000
,
0000000000000000
0000000000000000
0000000000000000
0000000010000001
,
0000000000000000
0000000000000010
0000000010000001
0000000000100000
,
0000000000010100
0000000000000000
0000000000000000
0000000100000000
,
0000000000000000
0000000000000000
0010000000000000
1000001100000000
,
1000000100000000
0000000000000000
0000000000000000
0000000000000000
,
0000000000000000
0011000000000000
0000010000000000
0000010000000000
,
0001010000000000
0000000000000000
0001010000000000
0000000000000000
,
0010000000000000
0010000000000000
0000010000000000
0000010000000000
,
0011000000000000
0000000000000000
0011000000000000
0000000000000000
,
0011000000000000
0000000000000000
0000000000000000
0000000000000000
,
0000000000110000
0000000000000000
0000000000110000
0000000000000000
,
0000000000000100
0000000000000010
0000000000010000
0000000000000000
,
0000000001000000
0000000000000000
0000000010000001
0000000000000000
,
0000000000010000
0000000000010000
0000000000100000
0000000001000000
,
0000000000010100
0000000000000000
0000000000010100
0000000000000000
,
0000010000000000
0011000000000000
0000010000000000
0001010000000000
,
0011000000000000
0000000000000000
0000000000010000
0000000000000000
,
0001010000000000
0000000000000000
0000000000000000
0000000000000000
,
0000000000110000
0000000000000000
0000000000000001
0000000000000000
,
0000000000000100
0000000000000010
0000000000010000
0000000000000000
,
0000000000100000
0000000001000000
0000000010000001
0000000000000000
,
0000000000000000
0000010000000000
0000010000000000
0000000000000000
,
0101000100000000
0000001000000000
0001001100000000
0100000100000000
,
1000000000000000
0000001000000000
0100000000000000
0010000000000000
,
0000001000000000
1000000000000000
0100000000000000
0000001000000000
,
0000010000000000
0010000000000000
0010000000000000
0000010000000000
,
0000000100000000
0000000100000000
0000000100000000
0100000000000000
,
0000001000000000
0000001000000000
0000010000000000
0000010000000000
,
0000000000110000
0000000000110000
0001010000100000
0000000000000000
,
0000010000000000
0000000001000000
0000001000000000
0000001000000000
,
0000000001100000
0000000000000000
0000000000000000
0000000000000000
;
