#TITLE:Remember You;
#SUBTITLE:;
#ARTIST:NM feat. Julie;
#TITLETRANSLIT:;
#SUBTITLETRANSLIT:;
#ARTISTTRANSLIT:;
#GENRE:;
#CREDIT:locuuraa;
#LYRICSPATH:;
#MUSIC:Remember You.ogg;
#OFFSET:-0.100;
#SAMPLESTART:12.020;
#SAMPLELENGTH:12.000;
#SELECTABLE:YES;
#BPMS:0.000=105.000,154.000=80.000,156.500=60.000,159.000=45.000;
#STOPS:;
#KEYSOUNDS:;
#BANNER:Remember You.png;
#BACKGROUND:Remember You.png;
#CDTITLE:../CDTitles/4DSS.png;
#BGCHANGES:-14.700=Remember You.avi=1.000=0=0=1,
229.000=Remember You.png=1.000=0=0=1,
99999=-nosongbg-=1.000=0=0=0
;
#NOTES:
     ds3ddx-single:
     Hard:
     Medium:
     3:
     :
00000000
00000000
00000000
00000000
,
00000000
00000000
00000000
00000000
,
10000000
00000000
10000000
01000000
00010000
00000100
00000100
00000001
,
00000010
00000000
00000100
00000100
,
10000000
00000001
00100000
00000010
00000000
01000000
00000100
00100000
,
00000100
10000000
01000000
00010000
00000000
00000000
10000000
00000000
,
00000100
00000001
00100000
10000000
00000000
00000000
00000100
00000000
,
01000000
00000010
01000000
00000001
00000000
00000000
00010000
00000000
,
00100000
00000100
00100000
00000001
00000000
00000000
00011000
00000000
,
10000000
00010000
00000001
00010000
00000000
00100000
01000000
00000010
,
10000001
00000000
00010000
00000000
00100000
00000010
01000000
00000000
,
00100000
00000100
00000010
01000000
00000000
00010000
00010000
00000000
,
00100000
00010000
00000001
00000000
00000100
00010000
10000000
00000000
,
00000100
00000000
01000000
00000000
00000010
00000010
00000010
00000000
,
00100000
00000000
00000010
00000000
01000000
01000000
01000000
00000000
,
00010000
00000000
10000000
00000000
00000100
00000100
00000100
00000000
,
00100000
01000000
00000010
00000100
,
00010000
00000000
00000000
10000001
00000000
00000000
00000000
00011000
,
00000000
00000000
00000010
01000000
,
00100000
00000100
00100000
00000000
00000100
00000010
01000000
00100000
,
00000000
10000000
00010000
00000001
00010000
00000100
00100000
00000000
,
10000001
00000000
00000010
01000000
00000000
00000010
00000010
00000000
,
10000000
00100000
00000100
00010000
00000000
00000000
01000000
00000010
,
10000000
00001000
00000001
00010000
00000000
00000000
00100000
00100000
,
00000100
00000100
10000000
00010000
00000001
00000010
00000010
00000000
,
01000000
00100000
00000100
00000010
,
10000001
00000000
01000000
00000010
01000000
00000000
00000000
00000000
,
00000000
00100000
00000100
10000001
00000000
00000000
00000000
00000000
,
00000010
00100000
00000100
01000000
00000000
00000010
00000010
00000000
,
01000000
00000100
00100000
00000010
00000000
01000000
01000000
00000000
,
00000001
00000000
00000001
00000000
00000100
00100000
00000100
00000000
,
01000000
00000010
01000000
00000000
10000000
00000001
10000000
00000000
,
00010000
00000000
00100000
00000100
00000000
00100000
01000000
00000000
,
00000010
00000100
00100000
01000000
00000000
00000000
00010000
00000000
,
00000100
00100000
00000100
00100000
00000000
00000000
00000001
00000000
,
01000000
01000000
00000010
00000010
00010000
00000000
10000000
00000000
,
00000001
00100100
00100100
00000000
00000000
10000000
10000000
00000100
,
00000000
00000001
00000001
01000000
00000000
00000010
00000010
00000000
,
10000001
00000000
00000000
00000000
00000000
00000000
00010000
00000000
00000000
00000001
00000000
00000000
00010000
00000000
00000000
00010000
00000000
00000000
00000000
00000000
00000000
00000000
10000000
00000000
,
00000000
00000000
00000000
00000000
00000000
00000000
00000000
00000000
00000000
00000101
00000000
00000000
00000000
00000000
00000000
00000000
00000000
00000000
00000000
00000000
00000000
00000000
00000000
00000000
00000000
00000000
00000000
00000000
00000000
00000000
00000000
00000000
00000000
00000001
00000000
00000000
00000000
00000000
00000000
00000000
10100000
00000000
00000000
00000000
00000000
00000000
00000000
00000000
;
