#TITLE:R&B [FUNKY FRIDAY NIGHT];
#SUBTITLE:;
#ARTIST:街舞主体 (SAFEWAY);
#TITLETRANSLIT:;
#SUBTITLETRANSLIT:;
#ARTISTTRANSLIT:Street Dance Theme;
#GENRE:;
#CREDIT:locuuraa;
#LYRICSPATH:;
#MUSIC:R&B.ogg;
#OFFSET:0.400;
#SAMPLESTART:12.020;
#SAMPLELENGTH:12.000;
#SELECTABLE:YES;
#BPMS:0.000=106.000;
#STOPS:;
#KEYSOUNDS:;
#BANNER:R&B.png;
#BACKGROUND:R&B.png;
#CDTITLE:../CDTitles/4DSS.png;
#BGCHANGES:-14.700=R&B.avi=1.000=0=0=1,
229.000=R&B.png=1.000=0=0=1,
99999=-nosongbg-=1.000=0=0=0
;
#NOTES:
     ds3ddx-single:
     Hard:
     Medium:
     3:
     :
00000000
00000000
00000000
00000000
,
00000000
00000000
00000000
00000000
,
10000001
00000000
00100000
00000000
00000100
00000000
00100000
00100000
,
00000001
00000000
00000100
00000000
00100000
00000000
00000100
00000100
,
10000000
00000000
00100000
00000000
00000010
00000000
00000100
00000100
,
01000000
00000000
00000100
00000000
01000000
00000000
00100000
00100000
,
00000010
00000000
01000000
00000000
00000010
00000000
01000000
01000000
,
00000100
00000000
00100000
00000000
00000100
00000000
00100000
00100000
,
00000010
00000000
00100000
00000000
01000000
00000000
00000010
00000010
,
00000100
00000000
00000100
00000000
00000010
00000000
01000000
01000000
,
00100000
00000000
00000100
00000000
00000010
00000000
01000000
01000000
,
00100000
00000000
00100000
00000000
01000000
00000000
00000010
00000010
,
00000100
00000000
00100000
00000000
00010000
00000000
00000100
00000100
,
10000000
00000000
00000100
00000000
00010000
00000000
00100000
00100000
,
00000001
00000000
00100000
00000000
10000101
00000000
01000000
01000000
,
00000100
00000000
00000010
00000000
11000001
00000000
00000100
00000100
,
00100000
01010000
00000000
00010100
,
00000000
00000000
00100000
00000000
00000010
00000000
01000000
01000000
,
00010000
00010100
00000000
10100000
,
00000000
00000000
00000010
00000000
00000100
00000000
01000000
01000000
,
00100000
10000100
00000000
00100001
,
00000000
00000000
00000100
00000000
00000010
00000000
00100000
00100000
,
01000000
00000000
00010000
00000001
00000000
00000000
00010000
10000000
,
00000000
00000000
10000000
00000000
00000001
00000000
00100000
00100000
,
00000010
00100000
00000010
01000000
,
00000100
00000100
01000000
00000010
,
00100000
00000100
00000100
00100000
,
01100000
01000000
01000000
00000010
,
00000110
00010000
00000000
00000001
,
00000000
00000000
00000010
00000000
01000000
00000000
00000010
00000010
,
00100000
00010000
00000000
10000000
,
00000000
00000000
01000000
00000000
00000010
00000000
01000000
01000000
,
00000100
00000001
00000000
00110000
,
00000000
00000000
00100000
00000000
01000000
00000000
00000100
00000100
,
00100000
10000000
00000000
00010100
,
00000000
00000000
00000100
00000000
00000010
00000000
00100000
00100000
,
00000100
00100000
01000000
00000010
,
00000100
00100000
01000000
00000100
,
00000000
00000010
01000000
00100000
,
00000100
00000010
00000100
00100000
,
00000000
01000000
00000100
00100000
,
00000010
00100000
01000000
00010100
;
#NOTES:
     ds3ddx-double:
     Club:
     Easy:
     3:
     :
0000000000000000
0000000000000000
0000000000000000
0000000000000000
,
0000000000000000
0000000000000000
0000000000000000
0000000000000000
,
1000000100000000
0000000000000000
0010000000000000
0000000000000000
0000010000000000
0000000000000000
0010000000000000
0010000000000000
,
0000000100000000
0000000000000000
0000010000000000
0000000000000000
0010000000000000
0000000000000000
0000010000000000
0000010000000000
,
1000000000000000
0000000000000000
0010000000000000
0000000000000000
0000001000000000
0000000000000000
0000010000000000
0000010000000000
,
0100000000000000
0000000000000000
0000010000000000
0000000000000000
0100000000000000
0000000000000000
0010000000000000
0010000000000000
,
0000001000000000
0000000000000000
0100000000000000
0000000000000000
0000001000000000
0000000000000000
0100000000000000
0100000000000000
,
0000010000000000
0000000000000000
0010000000000000
0000000000000000
0000010000000000
0000000000000000
0010000000000000
0010000000000000
,
0000001000000000
0000000000000000
0010000000000000
0000000000000000
0000001000000000
0000000000000000
0000000001000000
0000000001000000
,
0000000000100000
0000000000000000
0000000000100000
0000000000000000
0000000001000000
0000000000000000
0000000000000010
0000000000000010
,
0000000000100000
0000000000000000
0000000000000010
0000000000000000
0000000000000100
0000000000000000
0000000001000000
0000000001000000
,
0000000000100000
0000000000000000
0000000000100000
0000000000000000
0000000001000000
0000000000000000
0000001000000000
0000001000000000
,
0000010000000000
0000000000000000
0010000000000000
0000000000000000
0001000000000000
0000000000000000
0000010000000000
0000010000000000
,
0000000100000000
0000000000000000
0000000000100000
0000000000000000
0000000010000000
0000000000000000
0000000000100000
0000000000100000
,
0000000000000001
0000000000000000
0000000000100000
0000000000000000
0000000010000101
0000000000000000
0000000001000000
0000000001000000
,
0000000000000100
0000000000000000
0000000000000010
0000000000000000
0000000011000001
0000000000000000
0000000000000100
0000000000000100
,
0000000000100000
0000000011000000
0000000000000000
0001010000000000
,
0000000000000000
0000000000000000
0010000000000000
0000000000000000
0000001000000000
0000000000000000
0100000000000000
0100000000000000
,
0001000000000000
0001010000000000
0000000000000000
1010000000000000
,
0000000000000000
0000000000000000
0000001000000000
0000000000000000
0000010000000000
0000000000000000
0100000000000000
0100000000000000
,
0010000000000000
1000010000000000
0000000000000000
0010000100000000
,
0000000000000000
0000000000000000
0000010000000000
0000000000000000
0000001000000000
0000000000000000
0010000000000000
0010000000000000
,
0100000000000000
0000000000000000
0001000000000000
0000000100000000
0000000000000000
0000000000000000
0001000000000000
1000000000000000
,
0000000000000000
0000000000000000
1000000000000000
0000000000000000
0000000100000000
0000000000000000
0010000000000000
0010000000000000
,
0000001000000000
0000000001000000
0000001000000000
0000000001000000
,
0000000000100000
0000000000100000
0000000001000000
0000001000000000
,
0000000000100000
0000010000000000
0000010000000000
0000000000100000
,
0000000001100000
0000000001000000
0000000001000000
0000000000000010
,
0000000000000110
0000000000010000
0000000000000000
0000000010000000
,
0000000000000000
0000000000000000
0000001000000000
0000000000000000
0100000000000000
0000000000000000
0000001000000000
0000001000000000
,
0010000000000000
0001000000000000
0000000000000000
1000000000000000
,
0000000000000000
0000000000000000
0100000000000000
0000000000000000
0000001000000000
0000000000000000
0100000000000000
0100000000000000
,
0000010000000000
0000000100000000
0000000000000000
0011000000000000
,
0000000000000000
0000000000000000
0010000000000000
0000000000000000
0100000000000000
0000000000000000
0000010000000000
0000010000000000
,
0010000000000000
1000000000000000
0000000000000000
0001010000000000
,
0000000000000000
0000000000000000
0000010000000000
0000000000000000
0000001000000000
0000000000000000
0000000000100000
0000000000100000
,
0000000001000000
0000000000100000
0000000001000000
0000000000000010
,
0000000000000100
0000000000100000
0000000001000000
0000000000000100
,
0000000000000000
0000000001000000
0000001000000000
0000010000000000
,
0000001000000000
0000000001000000
0000000000100000
0000010000000000
,
0000000000000000
0100000000000000
0000010000000000
0010000000000000
,
0000001000000000
0000000001000000
0000000000100000
0000000000010100
;
