#TITLE:Question;
#SUBTITLE:;
#ARTIST:하성운;
#TITLETRANSLIT:;
#SUBTITLETRANSLIT:;
#ARTISTTRANSLIT:Ha Woo-sun;
#GENRE:;
#CREDIT:locuuraa;
#LYRICSPATH:;
#MUSIC:Question.ogg;
#OFFSET:1.340;
#SAMPLESTART:11.460;
#SAMPLELENGTH:12.000;
#SELECTABLE:YES;
#BPMS:0.000=149.970;
#STOPS:;
#KEYSOUNDS:;
#BANNER:Question.png;
#BACKGROUND:Question.png;
#CDTITLE:../CDTitles/4DSS.png;
#BGCHANGES:-14.700=Question.avi=1.000=0=0=1,
229.000=Question.png=1.000=0=0=1,
99999=-nosongbg-=1.000=0=0=0
;
#NOTES:
     ds3ddx-single:
     Hard:
     Medium:
     3:
     :
00000000
00000000
00000000
00000000
,
00000000
00000000
00000000
00000000
,
00000000
00000000
00000000
00000000
,
00000000
00000000
00000000
00000000
,
00000000
00000000
00000000
00000000
,
00000000
00000000
00000000
00000000
,
00000000
00000000
00000000
00000000
,
00000000
00100000
00000000
00000000
00000000
00000000
00000000
01000000
,
00000000
00000000
00000100
00000000
00000000
01000000
00000000
00000000
,
00000100
00000000
10000000
00010000
00000000
00000000
00000100
00000000
,
00000000
01000000
00000000
00000000
00000100
00000000
00000000
00100000
,
00000000
00000000
00000100
00000000
00000000
00100000
00000000
00000000
,
00100000
00000000
00000000
00000100
00000000
00000000
00100000
00000000
,
00000000
01000000
00000000
00000000
00000010
00000000
00000000
10000001
,
00000000
00000000
00100000
00000000
00000000
00000100
00000000
00000000
,
01000000
00000000
00000000
00000000
00010000
00000000
00000000
00000000
00000000
00000101
00000000
00000000
00000000
00000000
00000000
00000000
00000000
00000000
00100000
00000000
00000000
00000000
00000000
00000000
,
00000000
00000000
00000000
01000000
00000000
00000000
00000000
00000000
00000000
00000000
00000000
00000000
00000100
00000000
00000000
00000000
00010000
00000000
00000000
00000000
00000000
00100000
00000000
00000000
,
00000000
00000000
01010000
00000000
00000000
00000100
00000000
00000000
,
01000000
00000000
00000000
00100000
00000000
00000000
00000100
00000000
,
00000000
00010000
00000000
00000000
10000000
00000000
00000000
00000101
,
00000000
00000000
00000000
00000000
00000000
00000000
00000000
00000000
00000000
00000000
00000000
00000000
00000000
00000000
00000000
01000000
00000000
00000000
00000000
00000000
00000010
00000000
00000000
00000000
,
01000000
00000000
00000000
00110000
00000000
00000000
00000000
00000000
,
00000000
00000000
00000000
00000100
00000000
00000000
00000000
00000000
00100000
00000000
00000000
00000000
00000100
00000000
00000000
00000000
00000000
00000000
00000000
00000000
00000000
01000000
00000000
00000000
,
00000000
00000000
00000010
00000000
00000000
01000000
00000000
00000000
,
00010010
00000000
00000000
00110000
00000000
00000000
00010100
00000000
,
00000000
11000000
00000000
00000000
00000011
00000000
00000000
00011000
,
00000000
00000000
00000000
00000000
00000000
00000000
00000000
00000000
00000000
00000000
00000000
00000000
00000000
00000000
00000000
00100000
00000000
00000000
00000000
00000000
01000000
00000000
00000000
00000000
,
00100000
00000000
00000000
10000001
00000000
00000000
00000000
00000000
,
00000000
00000000
00000000
00000100
00000000
00000000
00000000
00000000
00000010
00000000
00000000
00000000
00000100
00000000
00000000
00000000
00000000
00000000
00000000
00000000
00000000
10100000
00000000
00000000
,
00000000
00000000
00000101
00000000
00000000
00100000
00000000
00000000
,
01000000
00000000
00000000
00000010
00000000
00000000
00000100
00000000
,
00000000
00010000
00000000
00000000
00001000
00000000
00000000
10000001
,
00000000
00000000
00100000
00000000
00000000
00000100
00000000
00000000
,
01000000
00000000
00000000
00000100
00000000
00000000
00100000
00000000
,
00000000
00000010
00000000
00000000
00100000
00000000
00000000
00000100
,
00000000
00000000
01000000
00000000
00000000
01000000
00000000
00000000
,
00000100
00000000
00000000
00010000
00000000
00000000
00000000
00000000
,
00000000
00000000
00000000
00000000
00000000
00000000
00000000
00000000
00000000
00000000
00000000
00000000
00100000
00000000
00000000
00000000
00000100
00000000
00000000
00000000
00000000
10000001
00000000
00000000
,
00000000
00000000
00000010
00000000
00000000
01000000
00000000
00000000
,
00100000
00000000
00000000
00000000
00100000
00000000
00000000
00000000
00000000
00000001
00000000
00000000
00000000
00000000
00000000
00000000
00000000
00000000
10000000
00000000
00000000
00000000
00000000
00000000
,
00000000
00000000
00000000
01000000
00000000
00000000
00000000
00000000
00000010
00000000
00000000
00000000
00011000
00000000
00000000
00000000
00000000
00000000
00000000
00000000
00000000
00000010
00000000
00000000
,
00000000
00000000
01000000
00000000
00000000
00010000
00000000
00000000
,
10000001
00000000
00000000
00110000
00000000
00000000
00000101
00000000
,
00000000
00000000
00000000
00100000
00000000
00000000
00000000
00000000
00000100
00000000
00000000
00000000
00100000
00000000
00000000
00000000
00000000
00000000
00000000
00000000
00000000
10010000
00000000
00000000
,
00000000
00000000
00010001
00000000
00000000
00100000
00000000
00000000
,
00000100
00000000
00000000
00000000
00010000
00000000
00000000
00000000
00000000
01000000
00000000
00000000
00000000
00000000
00000000
00000000
00000000
00000000
00000010
00000000
00000000
00000000
00000000
00000000
,
00000000
00000000
00000000
00110000
00000000
00000000
00000000
00000000
00000000
00000000
00000000
00000000
00100010
00000000
00000000
00000000
00010000
00000000
00000000
00000000
00000000
01000100
00000000
00000000
,
00000000
00000000
00000001
00000000
00000000
01000000
00000000
00000000
,
00000010
00000000
00000000
00000100
00000000
00000000
00100000
00000000
,
00000000
00010000
00000000
00000000
10000000
00000000
00000000
00010001
,
00000000
00000000
00100000
00000000
00000000
10000100
00000000
00000000
,
00110000
00000000
00000000
00000011
00000000
00000000
00100000
00000000
,
00000000
01000000
00000000
00000000
00000010
00000000
00000000
00000100
,
00000000
00000000
00100000
00000000
00000000
11000000
00000000
00000000
,
00000011
00000000
00000000
00100000
00000000
00000000
01000000
00000000
,
00000000
00000010
00000000
00000000
00000100
00000000
00000000
00010000
,
00000000
00000000
00100000
00000000
00000000
01000000
00000000
00000000
,
00000011
00000000
00000000
00000100
00000000
00000000
00000010
00000000
,
00000000
11000000
00000000
00000000
00100000
00000000
00000000
00000100
,
00000000
00000000
00100000
00000000
00000000
01000000
00000000
00000000
,
00000011
00000000
00000000
01000000
00000000
00000000
01000000
00000000
,
00000000
00000010
00000000
00000000
00000010
00000000
00000000
00010000
,
00000000
00000000
00000100
00000000
00000000
00000010
00000000
00000000
,
11000000
00000000
00000000
00100000
00000000
00000000
01000000
00000000
,
00000000
00000011
00000000
00000000
00000100
00000000
00000000
00100000
,
00000000
00000000
00000100
00000000
00000000
00000010
00000000
00000000
,
11000000
00000000
00000000
00000010
00000000
00000000
00000010
00000000
,
00000000
01000000
00000000
00000000
01000000
00000000
00000000
00011000
;
