#TITLE:PUMP ME;
#SUBTITLE:Amadeus;
#ARTIST:BanYa;
#TITLETRANSLIT:;
#SUBTITLETRANSLIT:;
#ARTISTTRANSLIT:;
#GENRE:;
#CREDIT:locuuraa;
#LYRICSPATH:;
#MUSIC:PUMP ME.ogg;
#OFFSET:0.000;
#SAMPLESTART:12.020;
#SAMPLELENGTH:12.000;
#SELECTABLE:YES;
#BPMS:0.000=169.900;
#STOPS:;
#KEYSOUNDS:;
#BANNER:PUMP ME.png;
#BACKGROUND:PUMP ME.png;
#CDTITLE:../CDTitles/4DSS.png;
#BGCHANGES:-14.700=PUMP ME.avi=1.000=0=0=1,
229.000=PUMP ME.png=1.000=0=0=1,
99999=-nosongbg-=1.000=0=0=0
;
#NOTES:
     ds3ddx-double:
     Club:
     Easy:
     7:
     :
0000000000000000
0000000000000000
0000000000000000
0000000000000000
,
0000010000100000
0000000000000000
0000000000000000
0000000000000000
,
0010000000000000
0000000000000000
0000000000000000
0000000000000000
,
0100001000000000
0000000000000000
0000000000000000
0000000000000000
,
0010001000000000
0010000000000000
0100010000000000
0000000000000000
,
0010000000000000
0000001000000000
0000010000000000
0000000000100000
0000000001000000
0000000000000010
0000000000000000
0000000000000000
,
0000000000000100
0000000001000000
0000000000100000
0000010000000000
0000001000000000
0100000000000000
0000000000000000
0000000000000000
,
0010000000000000
0000001000000000
0000010000000000
0000000000100000
0000000001000000
0000000000000010
0000000000000000
0000000000000000
,
0000000000000100
0000000001000000
0000000000100000
0000010000000000
0000001000000000
0100000000000000
0000000000000000
0000000000000000
,
0010000000000000
0000001000000000
0000010000000000
0000000000100000
0000000001000000
0000000000000010
0000000000000000
0000000000000000
,
0000000001000000
0000000000000010
0000000001000000
0000000000000000
0000000000000010
0000000001000000
0000000000000010
0000000000000000
,
0000000000100000
0000000001000000
0000000000000000
0000000000000000
0000000000000100
0000000000000010
0000000000000000
0000000000000000
0000000001000000
0000000000000010
0000000000000000
0000000000000000
0000000000000100
0000000000100000
0000000000000000
0000000000000000
,
0000000001000010
0000000000000000
0000000000000000
0000000000000000
,
0000000000000100
0000000000000010
0000000001000000
0000000000100000
0000010000000000
0000001000000000
0100000000000000
0010000000000000
,
0100000000000000
0000001000000000
0010000000000000
0000010000000000
0010000000000000
0000010000000000
0100000000000000
0000001000000000
,
0000010000000000
0000000000100000
0000000001000000
0000000000000010
0000000001000000
0000000000000010
0000000000100000
0000000000000010
,
0000000001000000
0000000000000100
0000000000100000
0000000000000010
0000000001000000
0000000000100000
0000010000000000
0000001000000000
,
0100000000000000
0000010000000000
0010000000000000
0000001000000000
0100000000000000
0010000000000000
0000010000000000
0010000000000000
,
0000001000000000
0010000000000000
0100000000000000
0010000000000000
0000001000000000
0100000000000000
0000001000000000
0000010000000000
,
0000001000000000
0000000000100000
0000000001000000
0000010000000000
0000000000100000
0000010000000000
0000000000100000
0000001000000000
,
0000000001000000
0000000000100000
0000000000000100
0000000001000000
0000000000000010
0000000000100000
0000000000000100
0000000001000000
,
0000000000000010
0000000000000000
0000000001000000
0000000000000000
,
0000010000000000
0000000000000000
0100000000000000
0000000000000000
,
0000001000000000
0000000000000000
0000010000000000
0000000000000000
,
0100000000000000
0000000000000000
0000010000000000
0000000000000000
,
0000010000000000
0000001000000000
0100000000000000
0000000000000000
0010000000000000
0100000000000000
0000001000000000
0000000000000000
,
0010000000000000
0000001000000000
0000010000000000
0000000000100000
0000000001000000
0000000000000010
0000000001000000
0000000000000000
,
0000000000000100
0000000001000000
0000000000100000
0000010000000000
0000001000000000
0100000000000000
0000010000000000
0010000000000000
,
0000001000000000
0100000000000000
0000001000000000
0000010000000000
0000000000100000
0000000000000000
0000000000000000
0000000000000000
,
0000010000000000
0000000000000000
0000000000100000
0000000000000000
,
0001010000000000
0000000000000000
0000000000110000
0000000000000000
,
0000010000000000
0000001000000000
0100000000000000
0000001000000000
0010000000000000
0000001000000000
0000010000000000
0000000000100000
,
0000000001000000
0000000000000010
0000000001000000
0000000000000010
0000000001000000
0000000000000100
0000000001000000
0000000000100000
,
0000010000000000
0000001000000000
0010000000000000
0000001000000000
0100000000000000
0000010000000000
0010000000000000
0000001000000000
,
0000010000000000
0000000000100000
0000001000000000
0000000001000000
0000000000100000
0000000001000000
0000000000000100
0000000000000010
,
0000000000100000
0000010000000000
0000001000000000
0100000000000000
0000010000000000
0000001000000000
0010000000000000
0100000000000000
,
0000001000000000
0100000000000000
0000010000000000
0010000000000000
0000001000000000
0000010000000000
0000000000100000
0000000001000000
,
0000000000000010
0000000001000000
0000000000000100
0000000000100000
0000000001000000
0000010000000000
0000000000100000
0000000001000000
,
0000000000100000
0000010000000000
0000001000000000
0100000000000000
0000010000000000
0100000000000000
0000010000000000
0010000000000000
,
0000001000000000
0000010000000000
0000000000100000
0000001000000000
0000000001000000
0000010000000000
0000000000100000
0000010000000000
,
0000000000100000
0000001000000000
0000000001000000
0000001000000000
0000000001000000
0000001000000000
0000000001000000
0000001000000000
,
0000000001000000
0000000000000000
0000000000000000
0010000000000000
,
0010010000000000
0000000000000000
0000000000000000
0000000001000000
,
0000001001000000
0000000000000000
0000000000000000
0000000000000000
,
1100010100000000
0000000000000000
0000000000000000
0000000000000000
,
0000000010100011
0000000000000000
0000000000000000
0000000000000000
0000000000000100
0000000000100000
0000000001000000
0000000000000000
,
1100000000000000
0000000000000000
0000000000000000
0000000000000010
,
0000000000110100
0000000000000000
0000000000000000
0000000000000000
,
0010010000000000
0000000000000000
0000000000000000
0000000000000000
,
0000001100000000
1100000000000000
0000010100000000
1010000000000000
,
0000010000000000
0000001000000000
0000010000000000
0000000000100000
0000000001000000
0000000000000010
0000000001000000
0000000000000100
,
0000000001000000
0000000000000100
0000000000000010
0000000001000000
0000000000000010
0000000001000000
0000000000100000
0000010000000000
,
0000001000000000
0100000000000000
0000010000000000
0000001000000000
0000010000000000
0000001000000000
0010000000000000
0100000000000000
,
0010000000000000
0100000000000000
0000010000000000
0000001000000000
0000010000000000
0000001000000000
0100000000000000
0000001000000000
,
0010000000000000
0000001000000000
0100000000000000
0000010000000000
0100000000000000
0000001000000000
0010000000000000
0000010000000000
,
0000010000000000
0010000000000000
0010000000000000
0000010000000000
0100000000000000
0000001000000000
0010000000000000
0000001000000000
,
0000001000000000
0010000000000000
0000001000000000
0000010000000000
0000000000100000
0000000001000000
0000000000000010
0000000000000010
,
0000000000100000
0000010000000000
0000000001000000
0000001000000000
0000000000100000
0000000000100000
0000001000000000
0000001000000000
,
0000000000100000
0000001000000000
0000000001000000
0000010000000000
0000010000000000
0000000000100000
0000000001000000
0000000000000010
,
0000000001000000
0000000000000100
0000000000000100
0000000001000000
0000000000000010
0000000001000000
0000000000100000
0000010000000000
,
0000001000000000
0100000000000000
0100000000000000
0010000000000000
0000001000000000
0000010000000000
0000001000000000
0000010000000000
,
0010000000000000
0000001000000000
0010000000000000
0000001000000000
0000010000000000
0100000000000000
0000010000000000
0100000000000000
,
0000001000000000
0000001000000000
0000000000000000
0010010000000000
0000001000000000
0000000000000000
0100000000000000
0000000000000000
,
0000001000000000
0000000000000000
0000000000000000
0000010000000000
0000000000000000
0000000000000000
0000000000000000
0000000000000000
0000000000100100
0000000000000000
0000000000000000
0000000000000000
0000000000000010
0000000001000000
0000000000000000
0000000000000000
,
0000000000100000
0000000000000000
0000010000000000
0000000000000000
0000000000000000
0000000001000000
0000000000000000
0000000001000000
,
0000000000000000
0000000000000000
0000001000000000
0000000000000000
0000000001000000
0000000000000000
0000000000000000
0000000000000000
0000010000000000
0010000000000000
0000000000000000
0000000000000000
0000000000000000
0000000000000000
0100000000000000
0000001000000000
,
0000000000000000
0000000000000000
0000000000000000
0000000000100000
0000000000000000
0000000000000000
0000000001000000
0000000000000000
0000000000000000
0000010000000000
0000000000000000
0000000000000000
0000000000000000
0000000000000000
0000000001000000
0000000000000000
0000000000000000
0000000000000000
0000001000000000
0000000000000000
0000000000000000
0000000000000000
0000000000000000
0000000000000000
,
0000010000000000
0000000000000000
0000000000000000
0000000001000000
0000000000001000
0000000000000000
0000000000000000
0000000000000000
0000000000000000
0000000000000000
0000000000000000
0000000000000000
0000000000000000
0000000000000000
0000000000000000
0000000000000000
0000000000000000
0000000000000000
0000000000000000
0000000000000000
0000000000000000
0000000000000000
0000000000000000
0000000000000000
;
#NOTES:
     ds3ddx-single:
     Hard:
     Medium:
     7:
     :
00000000
00000000
00000000
00000000
,
00000000
00000000
00000000
00000000
,
00000000
00000000
00000000
00000000
,
00100100
00000000
00000000
00000000
,
01000010
00100000
01000100
00000000
,
00100000
01000000
00000100
00000010
00100000
00100000
00000100
00000000
,
00000010
00000100
00100000
01000000
00000010
00000010
01000000
00000000
,
00100000
00000100
00100000
00000100
00100000
01000000
00000010
00000000
,
01000000
00000010
01000000
00000010
00100000
00000100
00100000
00000000
,
00000100
01000000
00100000
00000010
00100000
00000100
00100000
00000000
,
00000010
01000000
00000010
00000000
00100000
00000100
00100000
00000100
,
00010000
00000000
00000000
00000000
00100000
00000100
00000000
00000000
01000000
00000010
00000000
00000000
00100000
01000000
00000000
00000000
,
00000100
00000010
00000000
00000000
10000001
00000000
00000000
00000000
00000000
00000000
00000000
00000000
00000000
00000000
00000000
00000000
,
00100000
10000000
00000100
00000001
00000010
01000000
10000000
00000001
,
00000100
00000001
00100000
10000000
01000000
00000010
10000000
00000001
,
00100000
00000100
00100000
00000010
00000100
00100000
00000100
01000000
,
00000100
00100000
00000100
00100000
00000010
01000000
00000010
01000000
,
00100000
10000000
00000100
00000001
00000010
01000000
10000000
00000001
,
00000100
00000001
00100000
10000000
01000000
00000010
10000000
00000001
,
00100000
00000100
00100000
00000010
00000100
00100000
00000100
01000000
,
00000100
00100000
00000100
00100000
00000010
01000000
00000010
01000000
,
00000100
00000000
00100000
00000010
00100000
00000000
00000100
01000000
,
00000100
00000000
00100000
01000000
00100000
00000000
00000100
00000100
,
00100000
00000000
00000100
01000000
00000100
00000000
00100000
00000010
,
00100000
00000000
00000100
00000010
00000100
00000000
00100000
00100000
,
00000100
00000010
01000000
00000000
00100000
01000000
00000010
00000000
,
00100000
10000000
00000100
00000001
00100000
01000000
00000010
00000000
,
00000100
00000010
01000000
00000010
00100000
01000000
00000100
00000010
,
00100000
00000100
00100000
00000010
00000100
00100000
00000100
00000000
,
10000001
00000000
00011000
00000000
,
10100000
00000101
11000000
00000000
,
00000100
00000010
01000000
00000010
00100000
01000000
00000100
00000010
,
00100000
00000100
00100000
00000010
00000100
00100000
00000100
00000000
,
01000000
00000100
00100000
00000010
01000000
00000100
00100000
00000010
,
01000000
00100000
01000000
00100000
00000010
00000100
00000010
00000100
,
00100000
01000000
00000100
00000010
01000000
00000100
00000010
00100000
,
00000000
00000000
10000001
00000000
,
10000000
10000000
00000001
00000001
00010000
10000000
00010000
00000001
,
00100000
00100000
00000010
00000010
00100000
00000100
01000000
00000010
,
00100000
10000000
00000100
00000001
01000000
10000000
00000010
00000001
,
00100000
01000000
00000010
00000100
10100000
00000000
10100000
00000000
,
10100000
00000000
00000000
00000101
,
10110000
00000000
00000000
10100000
,
00010101
00000000
00000000
00000000
,
11000101
00000000
00000000
00000000
,
10100011
00000000
00000000
00000000
,
11000000
00000000
00000000
00000100
,
10010100
00000000
00000000
00000000
,
00100100
00000000
00000000
00000000
,
00000011
11000000
00000101
10100000
,
00000100
00000010
01000000
00000010
00100000
01000000
00000100
00000010
,
00100000
00000100
00100000
00000010
00000100
00100000
00000100
00000000
,
01000000
00000100
00100000
00000010
01000000
00000100
00100000
00000010
,
01000000
00100000
01000000
00100000
00000010
00000100
00000010
00000100
,
00100000
01000000
00000100
00000010
01000000
00000100
00000010
00100000
,
00100000
10000000
10000000
00000100
00000010
01000000
00000000
00000000
,
00000100
00000100
00000001
00000001
00100000
01000000
00000010
00000000
,
01000000
00000000
01000000
00000000
00000010
00000000
00000010
00000000
00100000
00010000
00000100
00000000
00000100
00010000
00100000
00000000
,
10000001
00000000
00000010
00000010
00100000
00100000
00000100
00000100
,
01000000
01000000
00000010
00000010
00100000
00000100
00100000
00000100
,
01000000
00100000
01000000
00100000
00000010
00000100
00000010
00000100
,
00100000
00000010
00100000
00000010
00000100
01000000
00000100
01000000
,
00000001
00000001
00000000
00110000
00000000
10000100
00000000
00100000
,
10000000
00000000
10000000
00000000
00000000
00000000
00000000
00000000
00010000
00000001
00000000
00000000
00010000
10000000
00000000
00000000
,
10100000
10100000
00000000
00000101
00000000
11000000
00000000
00000011
,
10000000
00000000
10000000
00000000
00000000
00000000
00000000
00000000
00010000
00000001
00000000
00000000
00010000
10000000
00000000
00000000
,
00000101
00000101
00000000
01000000
00000000
00000100
00000000
00010000
,
00000100
10100000
00000000
00000000
00000000
00000000
00000000
00000000
;
