#TITLE:Oh!My?;
#SUBTITLE:;
#ARTIST:장윤정;
#TITLETRANSLIT:;
#SUBTITLETRANSLIT:;
#ARTISTTRANSLIT:Jang-Yoon Jung;
#GENRE:;
#CREDIT:locuuraa;
#LYRICSPATH:;
#MUSIC:Oh!My.ogg;
#OFFSET:-1.320;
#SAMPLESTART:12.020;
#SAMPLELENGTH:12.000;
#SELECTABLE:YES;
#BPMS:0.000=112.100;
#STOPS:;
#KEYSOUNDS:;
#BANNER:Oh!My.png;
#BACKGROUND:Oh!My.png;
#CDTITLE:../CDTitles/4DSS.png;
#BGCHANGES:-14.700=Oh!My.avi=1.000=0=0=1,
229.000=Oh!My.png=1.000=0=0=1,
99999=-nosongbg-=1.000=0=0=0
;
#NOTES:
     ds3ddx-single:
     Hard:
     Medium:
     5:
     :
00000000
00000000
00000000
00000000
,
00000000
00000000
00000000
00000000
,
00000000
00000000
00000000
00000000
,
00000000
00000000
00000000
00000000
,
00000100
00100000
01000000
00000000
00100000
00000100
00000010
00000000
,
00100000
00000000
00100000
00000000
00100000
00000001
10000000
00000000
,
00000100
00000100
00000100
10000001
,
00000100
00100000
01000000
00000010
01000010
00000000
00011000
00000000
,
00100000
00000100
01000000
00000000
00000100
00100000
00000010
00000000
,
00100000
00000000
00100000
00000000
00100000
00000001
10000000
00000000
,
00100000
00100000
00100000
10000001
,
00000110
00000000
00000000
00100010
00000000
00000000
10000000
00000001
10000000
00000001
00000000
00000000
,
10100000
00000000
00000101
00000000
00000000
00000000
00011000
00000000
00000000
10000001
00000000
00000000
,
00100000
00000100
00100000
00000000
00000100
00000010
00000100
00000000
,
01000000
00110000
00000010
00010100
,
00100000
00000100
00000010
00000000
00000100
00100000
01000000
00000000
,
10000101
00011010
10100001
01011000
,
00000100
00100000
00000100
00000000
01000000
00000000
01000010
00000000
,
00100000
01000000
00010000
00000000
00000100
00000010
00010000
00000000
,
00000100
00000000
00000010
00000000
01000000
00000000
00100000
10000001
,
00000000
00000000
00000000
00000000
,
00000000
10110000
00010101
01000000
,
11000011
00000000
00000000
00000000
00000000
00000100
00100000
00000010
,
10000100
00000000
00000000
00000000
00000000
00100000
00000100
01000000
,
00000011
00000011
00000011
00001000
,
01000000
00000000
00000100
00000000
00100100
00000000
00000100
00100000
,
00000010
10000101
00000000
00000000
00000000
00000000
00100000
00000100
,
01000000
10100001
00000000
00000000
00000000
00000000
00000100
00000000
,
00000010
01000000
00100000
00000100
,
00000010
00000000
00100000
00000000
10100101
00000000
00000001
10000000
,
00000001
10000000
00000100
00000000
00000100
00000000
10000000
00000001
,
10000000
00000000
00000000
00000001
00000000
00000000
00100000
00000000
00000000
00000000
00000000
00000000
00100000
00000000
00000000
00000000
00000000
00000000
00000100
00000000
00000100
00000000
00000000
00000000
,
00100000
01000000
00000010
01000000
,
00000001
00000000
10000000
00000000
10000001
00000000
00000001
10000000
,
00000001
10000000
00000100
00000000
01000010
01000010
10000000
00000001
,
10000000
00000000
00000001
00000000
00100000
00000000
00000000
00000000
00100100
00000000
00100100
00000000
00000100
00000100
00000000
00000000
,
00100000
01000000
00000010
01000000
,
00000001
00000000
10000000
00000000
10000001
00000000
00000001
10000000
,
00000001
10000000
00000100
00000000
00100100
00100100
10000000
00000001
,
10000000
00000001
00000100
00000000
00100100
00100100
01000000
00000000
,
00000010
01000000
11000101
00000000
,
00011000
10100000
01001000
00010010
,
11000011
00000000
00000000
00000000
,
00100000
00000100
00000010
01000000
00100100
00000000
10000001
00000000
;
#NOTES:
     ds3ddx-single:
     Easy:
     Easy:
     5:
     :
00000000
00000000
00000000
00000000
,
00000000
00000000
00000000
00000000
,
00000000
00000000
00000000
00000000
,
00000000
00000000
00000000
00000000
,
00000100
01000000
00100000
00000010
,
00100000
00100000
00100000
10000001
,
00000100
00000100
00000100
10000001
,
00000100
00100000
01000010
00011000
,
00100000
01000000
00000100
00000010
,
00100000
00100000
00100000
10000001
,
00100000
00100000
00100000
10000001
,
00000100
00000000
10000001
00010000
,
00100000
00000100
00000000
10000001
,
00100000
00100100
00000000
01000000
,
00000000
00110000
00000010
00010100
,
00100000
00000010
00000100
01000000
,
10000001
00000000
10100001
00000000
,
00000100
10100000
00100000
00000101
,
00100000
01000000
00000100
00000000
,
00000100
00000010
01000000
00100000
,
10000001
00000000
00000000
00000000
,
00000000
10000000
00000001
00010000
,
10000000
00000000
00000000
01000000
,
00000101
00000000
00100000
01000000
,
00000011
00000011
11000000
00000001
,
01000000
00000100
00100100
01000000
,
00000010
10100000
00000000
00100000
,
00000100
10100000
00000000
00000100
,
00000010
01000000
00100000
00000100
,
00000010
00000000
10100101
00000001
,
00000000
00000100
00010000
10000000
,
00000000
00100000
00100000
00000100
,
00000010
00100000
01000000
00000000
,
00000001
10000000
10000001
00000100
,
01000000
00100000
00000010
10000000
,
00000001
00100000
00100100
00000000
,
00100000
01000000
00000010
01000000
,
00000001
10000000
00000001
10000001
,
10000000
00010000
00100100
00000010
,
00000000
00000100
00100100
01000000
,
00000010
01000000
01000100
00000000
,
00011000
10000000
00001000
00000001
,
00010000
00000000
00000000
00000000
,
00100000
00000010
00100100
10000001
;
#NOTES:
     ds3ddx-double:
     Club:
     Easy:
     4:
     :
0000000000000000
0000000000000000
0000000000000000
0000000000000000
,
0000000000000000
0000000000000000
0000000000000000
0000000000000000
,
0000000000000000
0000000000000000
0000000000000000
0000000000000000
,
0000000000000000
0000000000000000
0000000000000000
0000000000000000
,
0000010000000000
0000000000100000
0000010000000000
0000000000000000
0000000001000000
0000001000000000
0000000001000000
0000000000000000
,
0000000000100000
0001010000000000
0000010000000000
0000000000110000
,
0000000000100000
0000010000000000
0000001000000000
0100001000000000
,
0000010000000000
0010010000000000
0010000000000000
0000001000000000
,
0000010000000000
0000000000100000
0000000001000000
0000000000000000
0000000000000100
0000000000100000
0000000001000000
0000000000000000
,
0000000000000010
0000000001000000
0000000000100000
0000010000000000
,
0000001000000000
0100000000000000
0000010100000000
0000000000000000
,
0000011000000000
0010001000000000
0100010000000000
0100001000000000
,
0010000000000000
1100000000000000
0000010000000000
0000001100000000
,
0010000000000000
0000010000000000
0010000000000000
0000000000000000
0000001000000000
0000010000000000
0000001000000000
0000000000000000
,
0000000000100000
0000000001000000
0000000000100000
0000000000000000
0000001000000000
0000000001000000
0000001000000000
0000000000000000
,
0000000000110000
0000000000000000
0000010000100000
0000000000000000
0000000000100000
0000010000000000
0000001000000000
0000000000000000
,
0000010000000000
0000000000100000
0000000001000000
0000000000000000
0000001000000000
0000000000000000
0000000001000000
0000000000000000
,
0000010000000000
0001001000000000
0000000000100000
0000000001010000
,
0000000000000010
0000000001000000
0000000000010100
0000000001000000
,
0000000000100000
0000010000000000
0000001000000000
0010000000000000
,
1100001100000000
0000000000000000
0000000000000000
0000000000000000
,
0000000000000000
1011000000000000
0001010100000000
0100000000000000
,
1100001100000000
0000000000000000
0000000000000000
0000000000000000
0000000000000000
0000001000000000
0000010000000000
0000000000100000
,
0000000001000000
0000000000000000
0000000000000000
0000000000000000
0000000000000000
0000000000100000
0000000000000100
0000000001000000
,
0000000000000011
0000000011000000
0000000000000011
0000000001000000
,
0000000000110000
0000000000000000
0000010000000000
0000000000000000
1010010100000000
0000000000000000
0010000000000000
0000001000000000
,
0000010000000000
0000000000110000
0000000000000000
0000000000000000
0000000000000000
0000000000000000
0000000001000000
0000000000100000
,
0000010000000000
0000001000000000
0000000000000000
0000000000000000
0000000000000000
0000000000000000
0000010000000000
0000000000000000
,
0000001000000000
0100000000000000
0010000000000000
0000010000000000
,
0000001100000000
0000000000000000
0010000000000000
0000000000000000
0000010000100000
0000000000000000
0000000000100000
0000010000000000
,
0000000000100000
0000010000000000
0000000000000000
0000000000000000
0000000000100000
0000000000000000
0000001000000000
0000000001000000
,
0000001000000000
0000000000000000
0000000000000000
0000000001000000
0000000000000000
0000000000000000
0000000000000000
0000000000000000
0000000000000000
0000000000000000
0000000000000000
0000000000000000
0000001000000000
0000000000000000
0000000000000000
0000000000000000
0000000000000000
0000000000000000
0000010000000000
0000000000000000
0000010000000000
0000000000000000
0000000000000000
0000000000000000
,
0000000000100000
0000000001000000
0000000000000010
0000000001000000
,
0000001001000000
0000000000000000
0000010000000000
0000000000000000
0000010000100000
0000000000000000
0000000000100000
0000010000000000
,
0000000001000000
0000000000000000
0000001000000000
0000000000000000
0000000000000000
0000000000000000
0000000000000000
0000000000000000
0000001000000000
0000000001000000
0000000000000000
0000000000000000
0000001000000000
0000000000000000
0000000001000000
0000000000000000
,
0000010000000000
0000000000000000
0000000000100000
0000000000000000
0000000000000000
0000000000000000
0000000000000000
0000000000000000
0000000000000000
0000000000000000
0000000000000000
0000000000000000
0000010000000000
0000010000000000
0000000000000000
0000000000000000
,
0010000000000000
0100000000000000
0000001000000000
0100000000000000
,
0000000100000000
0000000000000000
1000000000000000
0000000000000000
1000000100000000
0000000000000000
0000000100000000
1000000000000000
,
0000000100000000
1000000000000000
0000010000000000
0000000000000000
0010010000000000
0010010000000000
0000001000000000
0000010000000000
,
0000000000100000
0000000001000000
0000000000000000
0000000000000000
0000000000100100
0000000000100100
0000000000000010
0000000000000000
,
0000000001000000
0000000000100000
0000010000000000
0000000000000000
,
0001100000000000
1010000000000000
0100100000000000
0001001000000000
,
1100001100000000
0000000000000000
0000000000000000
0000000000000000
,
0010000000000000
0000001000000000
0000010000000000
0000000000100000
0000010000000000
0000000000000000
0000101001001000
0000000000000000
;
