#TITLE:Never Say GoodBye;
#SUBTITLE:;
#ARTIST:Mario & Nasty;
#TITLETRANSLIT:;
#SUBTITLETRANSLIT:;
#ARTISTTRANSLIT:;
#GENRE:;
#CREDIT:locuuraa;
#LYRICSPATH:;
#MUSIC:Never Say GoodBye.ogg;
#OFFSET:0.760;
#SAMPLESTART:12.020;
#SAMPLELENGTH:12.000;
#SELECTABLE:YES;
#BPMS:0.000=100.000;
#STOPS:;
#KEYSOUNDS:;
#BANNER:Never Say GoodBye.png;
#BACKGROUND:Never Say GoodBye.png;
#CDTITLE:../CDTitles/4DSS.png;
#BGCHANGES:-14.700=Never Say GoodBye.avi=1.000=0=0=1,
229.000=Never Say GoodBye.png=1.000=0=0=1,
99999=-nosongbg-=1.000=0=0=0
;
#NOTES:
     ds3ddx-single:
     Hard:
     Medium:
     5:
     :
00000000
00000000
00000000
00000000
,
00000000
00000000
00000000
01000001
,
00000000
00000000
01000000
00100000
01000000
00000000
10000010
00000000
,
00000000
00000000
01000000
00100000
00000100
00000010
10000001
00000000
,
00010000
00000000
00100000
00100000
10000100
00000000
01000000
00000000
,
10000001
00000000
00000010
00000100
00100000
01000000
10000001
00000000
,
00010000
00000000
00000010
00000010
01000001
00000000
10000000
00000000
,
00000001
00000000
00100000
01000000
00010010
00000000
00100000
00000000
,
00100001
00000100
10000100
00100100
,
10000001
00000000
01000010
00000000
00011000
00000000
01000000
10000000
,
00000010
00000001
00100000
00000100
10000001
00000000
01010000
00000000
,
10000100
00000000
00100000
00100000
00000001
00000000
00010010
00000000
,
00100001
00000000
00000100
00000100
10000000
00000000
10100000
00000000
,
00000101
00000000
01000000
00000010
00010000
00000000
11000000
00000000
,
00000011
00000000
00100000
00000100
00100000
00000000
00000100
00000000
,
00000010
01000000
00100000
00000100
,
00100000
01000000
00000010
11000000
,
00000000
00000101
00000000
10100000
,
00000101
01010000
00010010
00100000
,
01000000
00000010
00000100
00100000
,
00000100
00000010
11000000
00000101
,
10000100
00000000
00100000
00100000
10000010
00000000
10100000
00000000
,
00100001
00000000
00000100
00000100
01000001
00000000
00000010
00000000
,
01000000
00000000
00100000
01000000
00100001
00000000
01000000
00000000
,
00000010
00000000
00000100
00000010
10000100
00000000
00100000
00000000
,
01100001
00000000
00000100
01000000
00000010
00000000
00000100
00000000
,
10000110
00000000
00100000
00000010
01000000
00000000
00100001
00000000
,
10000100
00000000
01000000
01000000
00000010
00000000
01000001
00000000
,
10000010
00000000
00100000
00100000
00000100
00000000
10000001
00000000
,
00000000
00000000
00000000
10000000
00000001
00000000
01000000
00000000
,
00000100
00000000
00100000
00000100
01010000
00000000
00000100
00000000
,
00100100
01000000
00010100
01000000
,
01000010
00000100
01010000
00100000
,
01100000
00000010
11000000
00000010
,
00000110
00000000
01000000
01000000
00010000
00000000
10000001
00000000
,
00000000
00000000
00000000
00000001
10000000
00000000
00100000
00000000
,
00000100
00000000
01000000
00000010
01000000
00000000
01010000
00000000
,
10000100
00000000
00100000
00100000
00000001
00000000
00010010
00000000
,
00100001
00000000
10000000
10000000
10000000
00000000
10100000
00000000
,
00000101
00000000
01000000
00000010
00010000
00000000
11000000
00000000
,
00000011
00000000
00000001
00000001
00000001
00000000
00000100
00000000
,
00000010
01000000
00100000
00000100
,
00100000
01000000
00000010
11000000
,
00000000
00000101
00000000
10100000
,
00000101
01010000
00010010
00100000
,
01000000
00000010
00000100
00100000
,
00000100
00000010
01000000
00000011
;
