#TITLE:Nasty;
#SUBTITLE:;
#ARTIST:1TYM;
#TITLETRANSLIT:;
#SUBTITLETRANSLIT:;
#ARTISTTRANSLIT:;
#GENRE:;
#CREDIT:locuuraa;
#LYRICSPATH:;
#MUSIC:Nasty.ogg;
#OFFSET:0.640;
#SAMPLESTART:11.600;
#SAMPLELENGTH:12.000;
#SELECTABLE:YES;
#BPMS:0.000=93.000;
#STOPS:;
#KEYSOUNDS:;
#BANNER:Nasty.png;
#BACKGROUND:Nasty.png;
#CDTITLE:../CDTitles/4DSS.png;
#BGCHANGES:-14.700=Nasty.avi=1.000=0=0=1,
229.000=Nasty.png=1.000=0=0=1,
99999=-nosongbg-=1.000=0=0=0
;
#NOTES:
     ds3ddx-single:
     Hard:
     Medium:
     3:
     :
00000000
00000000
00000000
00000000
,
00000000
00000000
00000000
00000000
,
00000000
00000000
00000100
00100000
00000100
00000000
11000000
00000000
,
00010100
00100000
00100010
00000100
,
01000100
00000000
00000010
00000000
01000000
00000000
00000100
01000000
,
00000100
00000000
00100000
00000010
00100000
00000000
00000100
00000000
,
10100001
00000100
00100000
00000010
,
01000000
00000000
00000100
00010001
01000000
00000000
00100000
10010000
,
00000010
00000100
01000000
00100010
,
01000100
00000000
00100000
00000100
01000000
00000010
00100000
00000100
,
01010000
00000000
00000010
01000000
00110000
00000000
01000000
00000010
,
00010100
01000000
00000010
00100000
,
00000100
00000000
00100000
01000000
00110000
00000000
00000100
00000010
,
00010100
01000000
01000000
00000010
,
00000010
00000000
00110010
00000000
01010100
00000000
00000100
00100000
,
00000100
00100000
00100000
00000100
,
00000100
00100000
01101000
00000010
,
00010110
00000000
00000100
00000000
10100101
00000000
00000100
00100000
,
00000100
00000000
00010100
00000000
11000000
00000000
00010100
00000001
,
00010000
01000000
01000000
00000010
,
00000010
00000000
00110000
00000000
00000011
00000000
00110000
10000000
,
00010000
00100100
00010110
00100100
,
01110000
00100100
00000000
00000000
,
00000000
00000000
00000000
00000000
,
00000000
00110000
00010100
00100000
,
00000100
00000000
00110000
01000000
00010100
00000010
00000100
00000010
,
01000000
00000010
01000000
00000100
,
00100000
00000000
00010100
00000010
00110000
01000000
00100000
01000000
,
00000010
01000000
00000010
01000000
,
00000010
00000000
01000000
01000000
00010100
00000000
00000010
00000010
,
00110000
00000100
00100000
00000100
,
00000100
00000000
00010100
00000000
10000000
00000000
00010100
10000000
,
00010000
00100000
00000100
00100000
,
00100000
00000000
00110000
00000000
00000001
00000000
00110000
00000001
,
00010000
00000010
01000000
00000010
,
00000010
00000000
00100010
00000000
01000010
00000000
10000001
00000100
,
10000001
01000000
00000010
01000000
,
01000000
00000000
01000100
00000000
01000010
00000000
10000001
00100000
,
10000001
00100100
00010110
00100100
,
01110000
00100100
00000000
00000000
;
#NOTES:
     ds3ddx-double:
     Club:
     Easy:
     4:
     :
0000000000000000
0000000000000000
0000000000000000
0000000000000000
,
0000000000000000
0000000000000000
0000000000000000
0000000000000000
,
0000000000000000
0000000000000000
0000000000000100
0000000000100000
0000000000000100
0000000000000000
0000000011000000
0000000000000000
,
0000000000010100
0000000000100000
0000000000100010
0000000000000100
,
0000000001000100
0000000000000000
0000000000000010
0000000000000000
0000000001000000
0000000000000000
0000000000100000
0000001000000000
,
0000000000100000
0000000000000000
0000010000000000
0000000001000000
0000010000000000
0000000000000000
0000000000100000
0000000000000000
,
0000010000100000
0000000000100000
0000010000000000
0000001000000000
,
0100000000000000
0000000000000000
0000010000000000
0001000100000000
0100000000000000
0000000000000000
0010000000000000
1001000000000000
,
0000001000000000
0000010000000000
0100000000000000
0010001000000000
,
0100010000000000
0000000000000000
0010000000000000
0000010000000000
0100000000000000
0000001000000000
0010000000000000
0000010000000000
,
0101000000000000
0000000000000000
0000001000000000
0100000000000000
0011000000000000
0000000000000000
0100000000000000
0000001000000000
,
0001010000000000
0000000000100000
0000001000000000
0000000000100000
,
0000010000000000
0000000000000000
0000000000100000
0000000001000000
0000000000110000
0000000000000000
0000010000000000
0000001000000000
,
0001010000000000
0000000001000000
0000000001000000
0000001000000000
,
0000001000000000
0000000000000000
0000001000100000
0000000000000000
0000010001000000
0000000000000000
0000000000100000
0000010000000000
,
0000000000100000
0000010000000000
0000010000000000
0000000000100000
,
0000000000100000
0000010000000000
0000111000000000
0000000001000000
,
0000000001110000
0000000000000000
0000000000000100
0000000000000000
0000000010100101
0000000000000000
0000000000000100
0000000000100000
,
0000000000000100
0000000000000000
0000000000010100
0000000000000000
0000000011000000
0000000000000000
0000000000010100
0000000000000001
,
0000000000010000
0000000001000000
0000000001000000
0000000000100000
,
0000010000000000
0000000000000000
0001010000000000
0000000000000000
0000000001000000
0000000000000000
0001010000000000
0000000000010000
,
0001000000000000
0000010000100000
0000000001110000
0000010000100000
,
0001011000000000
0000010000100000
0000000000000000
0000000000000000
,
0000000000000000
0000000000000000
0000000000000000
0000000000000000
,
0000000000000000
0011000000000000
0001010000000000
0010000000000000
,
0000010000000000
0000000000000000
0011000000000000
0100000000000000
0001010000000000
0000001000000000
0000010000000000
0000001000000000
,
0000000000100000
0000001000000000
0000000001000000
0000010000000000
,
0000000000100000
0000000000000000
0001010000000000
0000001000000000
0000000000110000
0000000001000000
0000000000100000
0000000001000000
,
0000000000000100
0000000001000000
0000000000100000
0000010000000000
,
0000000000100000
0000000000000000
0000001000000000
0000001000000000
0000000000110000
0000000000000000
0000000001000000
0000000001000000
,
0001010000000000
0000000001000000
0000001000000000
0000010000000000
,
0010000000000000
0000000000000000
0011000000000000
0000000000000000
1000000000000000
0000000000000000
0011000000000000
1000000000000000
,
0001000000000000
0000010000000000
0000001000000000
0000000000100000
,
0000000000100000
0000000000000000
0001010000000000
0000000000000000
0000000000010000
0000000000000000
0001010000000000
0000000000010000
,
0001000000000000
0000000000100000
0000000001000000
0000000000000010
,
0000000000000010
0000000000000000
0000000000100010
0000000000000000
0000000001000010
0000000000000000
0000000010000001
0000000000000100
,
0000000010000001
0000000001000000
0000000000000010
0000000001000000
,
0000000001000000
0000000000000000
0000000001000100
0000000000000000
0000000001000010
0000000000000000
0000000010000001
0000000000100000
,
0000000010000001
0000000000100100
0000000001110000
0000001001000000
,
0001011000000000
0010010000000000
0000000000000000
0000000000000000
;
