#TITLE:My Humps;
#SUBTITLE:;
#ARTIST:Black Eyed Peas;
#TITLETRANSLIT:;
#SUBTITLETRANSLIT:;
#ARTISTTRANSLIT:;
#GENRE:;
#CREDIT:locuuraa;
#LYRICSPATH:;
#MUSIC:My Humps.ogg;
#OFFSET:1.280;
#SAMPLESTART:11.440;
#SAMPLELENGTH:12.000;
#SELECTABLE:YES;
#BPMS:0.000=124.020;
#STOPS:;
#KEYSOUNDS:;
#BANNER:My Humps.png;
#BACKGROUND:My Humps.png;
#CDTITLE:../CDTitles/4DSS.png;
#BGCHANGES:-14.700=My Humps.avi=1.000=0=0=1,
229.000=My Humps.png=1.000=0=0=1,
99999=-nosongbg-=1.000=0=0=0
;
#NOTES:
     ds3ddx-single:
     Hard:
     Medium:
     3:
     :
00000000
00000000
00000000
10100000
,
00000000
00000101
00000000
00000010
,
01000000
00010000
11000011
01000000
,
00000000
00010100
00000000
00000010
,
00000000
01000000
00000000
00000100
,
10000000
00000100
00000001
00000000
,
00000010
00000000
01000000
00000000
,
00000010
00000000
00010100
00000000
,
00000101
00100000
00000000
00000010
,
01000000
00000011
01000000
00000100
,
00000000
00100000
00100000
00000000
,
00000101
00100000
00000010
01000011
,
00000000
00010001
00000000
00010000
,
10000000
00000010
00000010
00100000
,
00000000
00000100
00000000
00100000
,
00000000
00000100
00000000
00010000
,
00100000
00000011
00000000
00100000
,
00010000
00000100
00000000
10000000
,
00000001
10100000
00000000
00100000
,
00000000
00000111
00000010
00010000
,
00000000
10110000
00000000
00000100
,
00000000
00000011
11000000
00000001
,
00000000
10000100
00000000
00000010
,
01000000
00000100
00000011
00100000
,
00000000
00000101
00000000
10000001
,
00010000
10000001
00000000
00000010
,
00010000
01000000
00000000
00000001
,
10000000
00000011
00000000
11000000
,
00000000
00000101
00000000
01010000
,
00000000
00010010
00000000
01000011
,
00000000
00000101
00000000
00110000
,
00000000
00000010
01000000
00000100
,
00000000
00100000
00000000
10000100
,
00000010
01000000
00100000
00000100
,
00000010
11000000
00000000
00000011
,
00000000
00100000
00000000
11000000
,
00000000
00010000
00000011
00000000
,
00000100
00100000
01000000
00000010
,
00000100
10100000
00000001
00010000
,
00000000
00000010
00000000
00000101
,
00000000
00000000
10100000
00000100
,
00000000
01000000
00000000
00000100
,
00100000
00000000
00000101
00000000
,
01000000
00000100
00000000
00000001
,
00000000
00010000
00100000
00000000
,
00000101
00000000
11000000
00010000
,
10000000
00000000
00010100
00000000
,
00000011
00000000
10000000
00010000
,
00010000
00000000
00000000
00000100
,
11000000
00000000
00010100
00000011
,
00000000
00000100
00000000
10100100
,
00000000
00000010
00000000
00000100
,
00000000
00000000
00010000
00000001
00000000
00000000
00000000
00000000
;
