#TITLE:Monkey Finger;
#SUBTITLE:;
#ARTIST:BanYa;
#TITLETRANSLIT:;
#SUBTITLETRANSLIT:;
#ARTISTTRANSLIT:;
#GENRE:;
#CREDIT:locuuraa;
#LYRICSPATH:;
#MUSIC:Monkey Finger.ogg;
#OFFSET:0.860;
#SAMPLESTART:11.780;
#SAMPLELENGTH:12.000;
#SELECTABLE:YES;
#BPMS:0.000=186.020;
#STOPS:;
#KEYSOUNDS:;
#BANNER:Monkey Finger.png;
#BACKGROUND:Monkey Finger.png;
#CDTITLE:../CDTitles/4DSS.png;
#BGCHANGES:-14.700=Monkey Finger.avi=1.000=0=0=1,
229.000=Monkey Finger.png=1.000=0=0=1,
99999=-nosongbg-=1.000=0=0=0
;
#NOTES:
     ds3ddx-single:
     Hard:
     Medium:
     7:
     :
00000000
00000000
00000000
00000000
,
00000000
00000000
00000000
00000000
,
01000000
00000000
00000010
00000000
,
10100000
00000000
00000101
00000000
,
00010100
00000000
11000000
00000000
,
01000000
00000100
01000000
00000100
00100000
00000000
00000101
00000000
,
00000010
00100000
00000100
01000000
00000010
00000000
11000000
00000000
,
00000100
00100000
00000010
01000000
00000010
00000000
11000000
00000000
,
00100000
00000100
00100000
01000000
00000100
00000000
11000000
00000000
,
00000100
01000000
00000010
00100000
00000100
00000000
11000000
00000000
,
00000010
01000000
00000100
00100000
00000010
00000000
11000000
00000000
,
00000100
00100000
00000100
00100000
00000010
00000000
11000000
00000000
,
01000000
00000010
01000000
00000010
00100000
00000100
10100000
00000000
,
00000100
00100000
00000010
00000100
01000000
00100000
00000100
00000010
,
00100000
00000100
01000000
00000100
00100000
00000010
01110000
00000000
,
00000010
01000000
00000100
00100000
00000100
00100000
01000000
00000010
,
00000100
00000010
00100000
00000100
01000000
00000000
00010110
00000000
,
01000000
00000010
00000100
00100000
01000000
00000010
00000100
00100000
,
00000010
01000000
00000100
00100000
00000100
00000000
00110100
00000000
,
01000000
01000000
00000011
01000000
00000100
00000010
01000000
00000100
,
00100000
00000010
11000000
00000000
00000011
00000000
10100000
00000000
,
00000100
00000010
00000000
00000000
00100000
01000000
00000000
00000000
00000000
00000010
01000000
00000000
,
00000000
00000000
00000100
00100000
00000000
00000000
00000000
00000100
00100000
00000010
01000000
00000000
,
00000000
00000010
11000000
00000000
00000000
00000000
00000100
11000000
00000000
00100000
00000011
00000000
,
00000000
00000000
00000000
00000100
10100000
00000000
00000000
01000000
00000011
00000000
00000100
11000000
,
00000000
00000000
00000100
00000010
00000000
00000000
00100000
01000000
00000000
00000000
00100000
00000100
,
00000000
00000000
00100000
00000101
00000000
00000000
00000100
10100000
00000000
00000000
00000010
01000000
,
00000000
00000000
00000100
10100000
00000000
00000000
00000010
11000000
00000000
00000000
01000000
00000011
,
00000000
00000000
00000000
00000100
10100000
00000000
00000000
00000000
00100000
00000101
00000000
01000000
,
00000011
00000000
00000000
00000100
11000000
00000000
00000000
00100000
00000011
00000000
00000000
00100000
,
00000101
00000000
00000000
00000000
00000000
00000000
00000010
00000000
11000000
00000000
00000000
00000000
00000000
00000000
00100000
00000000
00000101
00000000
00000000
00000000
00000000
00100000
00000000
00000000
,
00000100
01000000
00000100
00100000
00000010
00000000
00100000
00000000
,
00000100
00100000
00000100
00100000
00000100
00100000
00000100
00000000
,
00000011
01000000
00000100
00100000
00000100
01000000
00000010
00000100
,
00100000
01000000
00000100
01000000
00100000
00000101
00000000
00000000
,
00100000
00000100
00100000
01000000
00000100
00000010
00000100
00100000
,
00000100
01000000
00000010
00000100
00100000
00000011
00000000
00000000
,
00000100
00100000
00000010
00000100
00100000
00000100
01000000
00000010
,
00100000
00000010
00000100
01000000
00100000
00000100
01000000
00000100
,
00000010
00100000
00000100
01000000
00000010
01000000
00000100
00100000
,
00000010
00000100
00100000
01000000
00000100
00100000
00000100
00000010
,
01000000
00100000
00000100
00000010
00100000
00000100
01000000
00100000
,
00000010
00000100
01000000
00000010
00000010
01000000
00000010
00000000
,
00100000
00000100
00100000
00000100
01000000
00100000
00000011
00000000
,
00100000
00000100
01000000
00000100
10100000
00000000
00000101
00000000
,
00100000
01000000
00100000
00000010
00000100
00000010
00000100
00100000
,
00000100
01000000
00000010
00100000
00000100
01000000
00000010
00100000
,
00000100
01000000
00000100
00100000
00000010
00100000
00000100
00000100
,
00100000
00000100
01000000
00000100
00000010
00100000
00000100
01000000
,
00000100
00100000
01000000
00000100
00100000
00000010
01000000
00000100
,
00100000
00000010
00000100
00100000
00000100
00000010
01000000
00100000
,
00000100
00100000
00000010
01000000
00000010
00100000
00000010
01000000
,
00000100
00000010
00100000
01000000
00000010
00000100
00100000
00000100
,
00100000
01000000
00000010
00100000
00000100
00000010
01000000
00000100
,
01000000
00000010
00000100
00100000
00000010
00000100
00100000
01000000
,
00000100
00100000
00000100
00000010
00100000
00000100
01000000
00000100
,
00100000
00000010
01000000
00000100
00100000
00000010
00000100
01000000
,
00000100
01000000
00100000
00000100
01000000
00000010
00000100
01000000
,
00100000
00000100
01000000
00000100
01000000
00000010
01000100
00100000
,
00000010
01000000
00000100
00000010
00000100
01000000
00000100
01000000
,
00000010
01000000
00000100
00000010
00100000
01000000
00000100
01000000
,
00000100
00100000
00000010
00000100
01000000
00100000
00000010
00000100
,
00100000
01000000
00000100
00000010
00100000
00000100
01000000
00100000
,
00000100
00000010
01000000
00000100
00100000
00000010
00000100
01000000
,
00000010
00000100
00100000
01000000
00000100
00000010
00100000
00000100
,
01000000
00000100
00100000
00000010
00000100
01000000
00100000
00000010
,
01000000
00000100
00000010
00100000
00000010
00000100
01000000
00100000
,
00000100
01000000
00000010
00000100
01000000
00100000
00000100
00100000
,
00000100
00000010
01000000
00000100
00000010
00100000
00000100
01000000
,
00000010
00000100
00100000
00000010
00000100
01000000
00100000
00000100
,
01000000
00000010
00000100
01000000
00000010
00100000
01000000
00100000
,
00000100
00000010
00000100
00100000
01000000
00000010
00000100
00100000
,
00000010
01000000
00000100
00100000
00000010
00100000
00000100
01000000
,
00000100
00000010
00000100
00100000
01000000
00000100
00000010
00100000
,
01000000
00000100
01000000
00100000
00000010
00000100
01000000
00100000
,
00000100
00100000
00000010
01000000
00000100
00100000
00000010
00000100
,
01000000
00000010
00000100
01000000
00000010
00100000
00000100
00100000
,
00000011
00000000
00000000
00000000
;
#NOTES:
     ds3ddx-double:
     Club:
     Easy:
     7:
     :
0000000000000000
0000000000000000
0000000000000000
0000000000000000
,
0000000000000000
0000000000000000
0000000000000000
0000000000000000
,
0000001000000000
0000000000000000
0000000001000000
0000000000000000
,
0001010000000000
0000000000000000
0000000000110000
0000000000000000
,
0001010000000000
0000000000000000
1100000000000000
0000000000000000
,
0100000000000000
0000010000000000
0100000000000000
0000010000000000
0010000000000000
0000000000000000
0000010100000000
0000000000000000
,
0000001000000000
0000000001000000
0000000000100000
0000000000000100
0000000001000000
0000000000000000
0000000000000011
0000000000000000
,
0000000000000100
0000000001000000
0000000000100000
0000010000000000
0000001000000000
0000000000000000
1100000000000000
0000000000000000
,
0010000000000000
0000010000000000
0010000000000000
0100000000000000
0000010000000000
0000000000000000
1100000000000000
0000000000000000
,
0000010000000000
0100000000000000
0000001000000000
0010000000000000
0000010000000000
0000000000000000
1100000000000000
0000000000000000
,
0000001000000000
0000000000100000
0000000001000000
0000000000000010
0000000001000000
0000000000000000
0000000000000011
0000000000000000
,
0000000000000100
0000000000100000
0000000000000100
0000000000100000
0000000000000010
0000000000000000
0000000011000000
0000000000000000
,
0000010000000000
0000000000100000
0000010000000000
0000000000100000
0000001000000000
0000000001000000
0000001000000000
0000000000000000
,
0000010000000000
0010000000000000
0000001000000000
0000010000000000
0100000000000000
0010000000000000
0000010000000000
0000001000000000
,
0010000000000000
0000010000000000
0100000000000000
0000010000000000
0010000000000000
0000001000000000
0111000000000000
0000000000000000
,
0000001000000000
0000010000000000
0000000000100000
0000000001000000
0000000000000010
0000000001000000
0000000000000100
0000000000100000
,
0000000000000100
0000000001000000
0000000000000010
0000000000000100
0000000001000000
0000000000000000
0000000000010110
0000000000000000
,
0000000000000100
0000000001000000
0000000000100000
0000010000000000
0000001000000000
0100000000000000
0000010000000000
0010000000000000
,
0000001000000000
0100000000000000
0000010000000000
0010000000000000
0000010000000000
0000000000000000
0011010000000000
0000000000000000
,
0100000000000000
0100000000000000
0000001100000000
0100000000000000
0000010000000000
0000001000000000
0100000000000000
0000010000000000
,
0010000000000000
0000001000000000
1100000000000000
0000000000000000
0000001100000000
0000000000000000
1010000000000000
0000000000000000
,
0000010000000000
0000001000000000
0000000000000000
0000000000000000
0010000000000000
0100000000000000
0000000000000000
0000000000000000
0000000000000000
0000001000000000
0000010000000000
0000000000000000
,
0000000000000000
0000000000000000
0000000000100000
0000000001000000
0000000000000000
0000000000000000
0000000000000000
0000000000000010
0000000000000100
0000000000100000
0000000001000000
0000000000000000
,
0000000000000000
0000010000000000
0000001000000000
0000000000000000
0000000000000000
0000000000000000
0000010000000000
1100000000000000
0000000000000000
0010000000000000
0000001100000000
0000000000000000
,
0000000000000000
0000000000000000
0000000000000000
0000010000000000
1010000000000000
0000000000000000
0000000000000000
0100000000000000
0000001100000000
0000000000000000
0000010000000000
1100000000000000
,
0000000000000000
0000000000000000
0000010000000000
0000001000000000
0000000000000000
0000000000000000
0000000001000000
0000000000100000
0000000000000000
0000000000000000
0000000000000100
0000000000100000
,
0000000000000000
0000000000000000
0000000000000010
0000000011000000
0000000000000000
0000000000000000
0000000000000100
0000000010100000
0000000000000000
0000000000000000
0000000001000000
0000000000100000
,
0000000000000000
0000000000000000
0000010000000000
0000001000000000
0000000000000000
0000000000000000
0000001000000000
1100000000000000
0000000000000000
0000000000000000
0100000000000000
0000001100000000
,
0000000000000000
0000000000000000
0000000000000000
0000010000000000
1010000000000000
0000000000000000
0000000000000000
0000000000000000
0010000000000000
0000010100000000
0000000000000000
0100000000000000
,
0000001100000000
0000000000000000
0000000000000000
0000010000000000
1100000000000000
0000000000000000
0000000000000000
0010000000000000
0000001100000000
0000000000000000
0000000000000000
0010000000000000
,
0000010100000000
0000000000000000
0000000000000000
0000000000000000
0000000000000000
0000000000000000
0000001000000000
0000000000000000
1100000000000000
0000000000000000
0000000000000000
0000000000000000
0000000000000000
0000000000000000
0010000000000000
0000000000000000
0000010100000000
0000000000000000
0000000000000000
0000000000000000
0000000000000000
0010000000000000
0000000000000000
0000000000000000
,
0000010000000000
0100000000000000
0000010000000000
0010000000000000
0000001000000000
0000000000000000
0010000000000000
0000000000000000
,
0000010000000000
0010000000000000
0000010000000000
0010000000000000
0000010000000000
0010000000000000
0000010000000000
0000000000000000
,
0100000000000000
0000010000000000
0010000000000000
0000001000000000
0000010000000000
0000000000100000
0000000001000000
0000000000000100
,
0000000000100000
0000000001000000
0000000000000100
0000000001000000
0000000000100000
0000000000000101
0000000000000000
0000000000000000
,
0000000000100000
0000000000000100
0000000001000000
0000000000000010
0000000001000000
0000000000100000
0000010000000000
0000001000000000
,
0010000000000000
0000001000000000
0100000000000000
0000010000000000
0010000000000000
0000001100000000
0000000000000000
0000000000000000
,
0000010000000000
0010000000000000
0000001000000000
0000010000000000
0010000000000000
0000010000000000
0100000000000000
0000001000000000
,
0010000000000000
0000001000000000
0000010000000000
0100000000000000
0010000000000000
0000010000000000
0100000000000000
0000010000000000
,
0000001000000000
0010000000000000
0000010000000000
0100000000000000
0000001000000000
0000010000000000
0000000000100000
0000000001000000
,
0000000000000010
0000000000100000
0000000000000100
0000000000000010
0000000001000000
0000000000100000
0000000000000100
0000000000000010
,
0000000001000000
0000000000000100
0000000001000000
0000000000100000
0000010000000000
0000001000000000
0100000000000000
0010000000000000
,
0000001000000000
0000010000000000
0100000000000000
0000001000000000
0000001000000000
0100000000000000
0000001000000000
0000000000000000
,
0010000000000000
0000010000000000
0010000000000000
0000010000000000
0100000000000000
0010000000000000
0000001100000000
0000000000000000
,
0000010000000000
0000000000100000
0000000001000000
0000000000000010
0000000010100000
0000000000000000
0000000000000101
0000000000000000
,
0000000000000100
0000000000000010
0000000000000100
0000000000100000
0000000000000010
0000000001000000
0000000000000100
0000000001000000
,
0000010000000000
0000000001000000
0000001000000000
0000010000000000
0010000000000000
0000010000000000
0100000000000000
0000010000000000
,
0000010000000000
0100000000000000
0000010000000000
0010000000000000
0000001000000000
0010000000000000
0000001000000000
0000010000000000
,
0000000000100000
0000000001000000
0000000000000010
0000000000000100
0000000000000010
0000000001000000
0000000000100000
0000000000000010
,
0000000001000000
0000000000000100
0000000001000000
0000010000000000
0000000001000000
0000001000000000
0000000000100000
0000010000000000
,
0000000000100000
0000010000000000
0000000000100000
0000001000000000
0000010000000000
0010000000000000
0000001000000000
0010000000000000
,
0000010000000000
0010000000000000
0000001000000000
0100000000000000
0000001000000000
0010000000000000
0000001000000000
0100000000000000
,
0000010000000000
0000001000000000
0010000000000000
0100000000000000
0000001000000000
0000010000000000
0000000000100000
0000000001000000
,
0000000000000010
0000000001000000
0000000000000100
0000000000100000
0000000000000010
0000000000000010
0000000001000000
0000000000000100
,
0000000000100000
0000000000000010
0000000001000000
0000000000100000
0000010000000000
0000001000000000
0010000000000000
0100000000000000
,
0000010000000000
0010000000000000
0000010000000000
0000001000000000
0000000000100000
0000010000000000
0000000000100000
0000010000000000
,
0000001000000000
0000000000100000
0000001000000000
0000000001000000
0000010000000000
0000001000000000
0000000000100000
0000000001000000
,
0000000000000100
0000000001000000
0000000000000010
0000000001000000
0000000000100000
0000010000000000
0000001000000000
0100000000000000
,
0010000000000000
0000010000000000
0100000000000000
0000010000000000
0100000000000000
0000001000000000
0100010000000000
0010000000000000
,
0000001000000000
0100000000000000
0000010000000000
0000001000000000
0000010000000000
0100000000000000
0000010000000000
0100000000000000
,
0000001000000000
0000010000000000
0000000000100000
0000000001000000
0000000000000010
0000000000000100
0000000000100000
0000000000000010
,
0000000001000000
0000000000000100
0000000000100000
0000000000000010
0000000001000000
0000000000000010
0000000001000000
0000000000100000
,
0000010000000000
0000000001000000
0000010000000000
0000001000000000
0000000000100000
0000010000000000
0000000000100000
0000001000000000
,
0000000001000000
0000001000000000
0000010000000000
0100000000000000
0000010000000000
0100000000000000
0000010000000000
0100000000000000
,
0000001000000000
0000010000000000
0010000000000000
0100000000000000
0000010000000000
0000001000000000
0010000000000000
0000010000000000
,
0100000000000000
0000010000000000
0010000000000000
0000001000000000
0000010000000000
0000000000100000
0000000001000000
0000000000000010
,
0000000000100000
0000000000000100
0000000001000000
0000010000000000
0000001000000000
0010000000000000
0000001000000000
0010000000000000
,
0000010000000000
0100000000000000
0000001000000000
0000010000000000
0100000000000000
0010000000000000
0000010000000000
0010000000000000
,
0000010000000000
0000001000000000
0100000000000000
0000010000000000
0000001000000000
0010000000000000
0100000000000000
0000001000000000
,
0000010000000000
0000000000100000
0000000001000000
0000010000000000
0000000001000000
0000001000000000
0000000000100000
0000000001000000
,
0000000000000010
0000000000100000
0000000000000100
0000000001000000
0000000000100000
0000000000000010
0000000000000100
0000000001000000
,
0000000000000100
0000000000000010
0000000001000000
0000000000100000
0000010000000000
0000001000000000
0100000000000000
0010000000000000
,
0000010000000000
0100000000000000
0000010000000000
0010000000000000
0000001000000000
0010000000000000
0000010000000000
0100000000000000
,
0000010000000000
0000001000000000
0000010000000000
0000000000100000
0000000001000000
0000000000000010
0000000001000000
0000000000000100
,
0000000001000000
0000000000100000
0000000000000010
0000000001000000
0000000000100000
0000010000000000
0000001000000000
0100000000000000
,
0000010000000000
0010000000000000
0000001000000000
0100000000000000
0000010000000000
0010000000000000
0000001000000000
0000010000000000
,
0100000000000000
0000001000000000
0000010000000000
0100000000000000
0000001000000000
0010000000000000
0000010000000000
0010000000000000
,
0000001110000000
0000000000000000
0000000000000000
0000000000000000
;
