#TITLE:Mambo NO.5;
#SUBTITLE:;
#ARTIST:Lou Bega;
#TITLETRANSLIT:;
#SUBTITLETRANSLIT:;
#ARTISTTRANSLIT:;
#GENRE:;
#CREDIT:locuuraa;
#LYRICSPATH:;
#MUSIC:Mambo NO.5.ogg;
#OFFSET:-0.060;
#SAMPLESTART:11.880;
#SAMPLELENGTH:12.000;
#SELECTABLE:YES;
#BPMS:0.000=175.400;
#STOPS:;
#KEYSOUNDS:;
#BANNER:Mambo NO.5.png;
#BACKGROUND:Mambo NO.5.png;
#CDTITLE:../CDTitles/4DSS.png;
#BGCHANGES:-14.700=Mambo NO.5.avi=1.000=0=0=1,
229.000=Mambo NO.5.png=1.000=0=0=1,
99999=-nosongbg-=1.000=0=0=0
;
#NOTES:
     ds3ddx-single:
     Hard:
     Medium:
     5:
     :
00000000
00000000
00000000
00000000
,
00000000
00000000
00000000
00000000
,
00000000
00000000
00000000
00000000
,
00000000
00000000
00000000
00000000
00000000
00000000
00000000
00000000
00000000
00000000
00000000
00000000
01000000
00000010
00000000
00000000
,
00000000
00000000
00000000
00000000
00000010
01000000
00000000
00000000
00000000
00000100
00100000
00000000
00000000
00000010
01000000
00000000
,
00000000
00000000
00000000
00000000
00000010
01000000
00000000
00000000
00000000
00000000
00000000
00000000
00000100
11000000
00000000
00000000
,
00000000
00000000
00000000
00000000
00100000
00000011
00000000
00000000
00000000
00000000
00000010
01000000
00000000
00000000
00000100
00100000
,
00000000
00000000
00000101
00000000
00000000
00000000
00000000
00000000
00000000
00000000
01000000
00000010
00000000
00000000
00000000
00000000
,
00000000
00000000
01000000
00000010
00000000
00000000
00000000
00000000
00000000
00000000
00000100
00000010
00000000
00000000
00100000
01000000
,
00000000
00000010
11000000
00000000
00000000
00000000
01000000
00000000
,
00000000
00000000
00000000
00000000
00000010
00000000
00000000
00000000
00000000
00000000
00100000
00000100
00000000
00000000
00000100
00100000
,
00000000
00000000
00000010
11000000
00000000
00000000
00000000
00000000
00000000
00000000
00000000
00000000
00100000
00000000
00000000
00000000
,
00000000
00000000
00000100
00000000
00000000
00000000
00100000
00000100
,
00000000
10100000
00000000
00000000
00000000
01000000
00000000
00000000
,
00000000
00000000
00000010
00000000
00000000
00000000
00000000
00000000
00000000
00000000
00000100
01000000
00000000
00000000
00100000
00000010
,
00000000
00000010
11000000
00000000
00000000
00000000
00100000
00000000
,
00000000
00000000
00000000
00000000
00100000
00000000
00000000
00000000
00000000
00000000
00000010
00100000
00000000
00000000
00000100
01000000
,
00000000
00000000
00000010
11000000
00000000
00000000
00000000
00000000
00000000
00000000
00000000
00000000
00000100
00000000
00000000
00000000
,
00000000
00000000
00000000
00000000
00000100
00000000
00000000
00000000
00000000
00000000
00100000
00010100
00000000
00000000
00000000
00000000
,
00000000
00000000
00000000
01000000
,
01000000
00000010
00000010
00000100
,
00000100
01000000
00000010
00100000
,
00000100
00000000
00000010
01000000
00000000
00000000
00000000
00000000
00000000
00000000
00000000
00000000
00000100
00000000
00000000
00000000
,
01000000
00000000
00000000
00000000
00000011
11000000
00000000
00000000
00000000
00000000
00000000
00000000
01110000
00000000
00000000
00000000
,
00000000
00000000
00000000
00000000
00000111
00000000
00000000
00000000
00000000
00000000
00000010
01000000
00000000
00000000
00000010
01000000
,
00000000
00000000
00010100
01000000
00000000
00000000
00000000
00000000
00000000
00000000
00000000
00000000
00000100
00000000
00000000
00000000
,
00100000
00000100
00100000
00000010
,
00000000
11000000
00000000
00000100
,
00000100
00100000
00100000
00000010
,
00100000
00000101
00000000
01000000
,
00000000
00000000
00000000
00000000
00000100
00000000
00000000
00000000
00000000
00000000
00000100
00100000
00000000
00000000
00100000
00000010
,
00000000
00000000
01000000
00000011
00000000
00000000
00000000
00000000
00000000
00000000
00000000
00000000
01000000
00000000
00000000
00000000
,
00100000
00000100
00000010
01000000
,
00000000
00000000
00000100
10100000
00000000
00000000
00000000
00000000
00000000
00000000
00000000
00000000
00000010
00000000
00000000
00000000
,
00000000
00000000
00100000
10000100
00000000
00000000
00000000
00000000
00000000
00000000
00000000
00000000
01000010
00000000
00000000
00000000
,
00000000
00000000
00000010
01000000
00000000
00000000
00000010
01000000
00000000
00000000
01000000
00000011
00000000
00000000
00000000
00000000
,
00000000
10100000
00000000
00000101
,
00000000
00000000
00100000
00000100
00000000
00000000
00100000
00000100
00000000
00000000
00000100
00100000
00000000
00000000
00000000
00000000
,
00000000
00000011
00000000
11000000
,
00000000
00000000
00000100
01000000
00000000
00000000
00000100
01000000
00000000
00000000
00100000
00000010
00000000
00000000
00000010
01000000
,
00000000
00000000
00100000
00000100
00000000
00000000
00000000
00000000
00000010
11000000
00000000
00000000
00000000
00000000
00000000
00000000
,
00000000
00000000
01000000
00000100
00000000
00000000
01000000
00000100
00000000
00000000
00000010
00100000
00000000
00000000
00000100
00100000
,
00000000
00000000
00100000
00000100
00000000
00000000
00000000
00000000
00100000
00000101
00000000
00000000
00000000
00000000
00000000
00000000
,
00000000
00000000
00100000
00000100
00000000
00000000
00000100
00100000
00000000
00000000
01000000
00000010
00000000
00000000
00000010
01000000
,
00000000
00000000
01000000
00000010
00000000
00000000
00000000
00000000
00000010
01000000
00000000
00000000
00000000
00000000
00000000
00000000
,
00000000
00000000
00100000
00000100
00000000
00000000
00000100
00100000
00000000
00000000
00100000
01000000
00000000
00000000
00000100
00000010
,
00000000
00000000
01000000
00000010
00000000
00000000
00000100
00100000
00000000
00000000
00000000
00000000
01000000
00000000
00000000
00000000
,
00000000
00000000
00000100
01000000
00000000
00000000
00100000
00000010
00000000
00000000
01000000
00000100
00000000
00000000
00000010
01000000
,
00000000
00000000
00100000
00000010
00000000
00000000
00100000
00000010
00000000
00000000
00000100
10100000
00000000
00000000
00000000
00000000
,
00000000
00000000
00100000
00000100
00000000
00000000
01000000
00000010
00000000
00000000
00100000
01000000
00000000
00000000
00000100
00000010
,
00000000
00000000
01000000
00000100
00000000
00000000
00000010
00100000
00000000
00000000
00000000
00000000
11000011
00000000
00000000
00000000
,
00000000
00000000
00000000
01000000
,
01000000
00000010
00000010
11000000
,
00000010
00000000
00000000
00000000
11000000
00000011
00000000
00000000
00000000
00000000
00000000
00000000
00000100
00000000
00000000
00000000
,
00000100
00100000
00100000
00000100
,
00100000
00000000
00000000
00000000
00000101
10100000
00000000
00000000
00000000
00000000
00000000
00000000
00000100
00000000
00000000
00000000
,
00000010
01000000
00100000
00000100
,
00100100
00000011
00000000
01000000
,
01000000
00000100
00100000
00000100
,
00000000
00000000
00100000
00000100
00000000
00000001
00000000
00000001
00000000
00000001
00000000
00000001
00000010
00000000
00000000
00000000
,
01000000
00000100
00100000
00100000
,
00000010
01000010
00000000
00100000
,
00010000
00000100
00010000
01000000
,
00000010
00000000
00000000
00000000
00110100
00000000
00000000
00000000
00000000
00000000
01000000
00000010
00000000
00000000
00000010
01000000
,
00000000
00000000
00000100
00100000
00000000
00000000
00100000
00000100
00000000
00000000
00000010
01000000
00000000
00000000
00100000
00000010
,
00000000
00000000
00000100
01000000
00000000
00000000
00000000
00000000
00000000
00000000
00000000
00000000
00000011
00000000
00000000
00000000
,
00000000
00000000
10110101
00000000
;
