#TITLE:Lambada;
#SUBTITLE:;
#ARTIST:Kikka;
#TITLETRANSLIT:;
#SUBTITLETRANSLIT:;
#ARTISTTRANSLIT:;
#GENRE:;
#CREDIT:locuuraa;
#LYRICSPATH:;
#MUSIC:Lambada.ogg;
#OFFSET:-0.260;
#SAMPLESTART:12.020;
#SAMPLELENGTH:12.000;
#SELECTABLE:YES;
#BPMS:0.000=118.100;
#STOPS:;
#KEYSOUNDS:;
#BANNER:Lambada.png;
#BACKGROUND:Lambada.png;
#CDTITLE:../CDTitles/4DSS.png;
#BGCHANGES:-14.700=Lambada.avi=1.000=0=0=1,
229.000=Lambada.png=1.000=0=0=1,
99999=-nosongbg-=1.000=0=0=0
;
#NOTES:
     ds3ddx-single:
     Hard:
     Medium:
     4:
     :
00000000
00000000
00000000
00000000
,
00000000
00000000
00000000
00000000
,
00000000
00000000
00000000
00000000
00000000
00000000
00000000
00000000
00000000
00000000
00000000
00000000
00100000
00000000
00000000
00000100
,
00100000
00000000
00000000
00000000
00100000
00000000
00000000
01000000
00100000
00000000
00000000
00000000
00000100
00000000
00000000
00000010
,
00000100
00000000
00000000
00000000
01000000
00000000
00000000
00000010
01000000
00000000
00000000
00000000
00100000
00000000
00000000
00000100
,
00100000
00000000
00000000
00000000
00000100
00000000
00000000
00100000
00000100
00000000
00000000
00000000
00010000
00000000
00000000
00000000
,
10000000
00000000
00000000
00000000
01000000
00000000
00000000
00100000
01000000
00000000
00000000
00000000
00000100
00000000
00000000
00000010
,
00000100
00000000
00000000
00000000
00100000
00000000
00000000
00000010
00100000
00000000
00000000
00000000
00000100
00000000
00000000
01000000
,
00000100
00000000
00000000
00000000
00100000
00000000
00000000
00100000
00000100
00000000
00000000
00000000
00010000
00000000
00000000
00000000
,
00000001
00000000
00000000
00000000
00100000
00000000
00000000
00000100
00100000
00000000
00000000
00000000
01000000
00000000
00000000
00100000
,
00000100
00000000
00000000
00000000
00100000
00000000
00000000
00000100
01000000
00000000
00000000
00000000
00000010
00000000
00000000
00000010
,
01000000
00000000
00000000
00000000
00100000
00000000
00000000
00100000
01000000
00000000
00000000
00000000
00000100
00000000
00000000
00000000
,
00000100
00000000
00000000
00000000
00000100
00000000
00000000
01000000
00000010
00000000
00000000
00000000
00100000
00000000
00000000
01000000
,
00000100
00000000
00000000
00000000
00000010
00000000
00000000
00100000
00000100
00000000
00000000
00000000
00100000
00000000
00000000
00000100
,
00100000
00000000
00000000
00000000
00000010
00000000
00000000
01000000
00000010
00000000
00000000
00000000
00100000
00000000
00100000
00000000
,
00000100
00000000
00000100
00000000
10000001
00000000
00000000
00000000
00011000
00000000
00000000
00000000
00100000
00000000
00000000
00100000
,
00000010
00000000
00000000
00000000
00000100
00000000
00000000
00000100
01000000
00000000
00000000
00000000
00100000
00000000
00000000
00000000
,
01000000
00000000
00000010
00000000
00000100
00000000
00100000
00100000
,
00000100
00000000
00000100
00000000
01000000
00000000
01000000
00000000
00000010
00000000
00000010
00000000
10000001
00000000
00000000
00100000
,
00000100
00000000
00000000
00000000
00011000
00000000
00000000
00000010
01000000
00000000
00000000
00000000
00100000
00000000
00000000
00000000
,
00000101
00000000
00000010
00000010
01000000
00000000
00000100
00000000
,
00110000
00000000
00000000
00000000
01000000
00000000
00000000
00000000
01000000
00000000
00000000
00000000
00000100
00000000
00000000
00100000
,
01000000
00000000
00000000
00000000
00100000
00000000
00000000
00000100
00000010
00000000
00000000
00000000
01000000
00000000
00000000
00000000
,
00000011
00000000
00000000
00000000
00100000
00000000
00000000
00100000
00000100
00000000
00000000
00000000
01000000
00000000
00000000
00000000
,
00010010
00000000
00000000
00000000
00100000
00000000
00000000
00000000
00100000
00000000
00000000
00000000
00000010
00000000
00000000
01000000
,
00000100
00000000
00000000
00000000
01000000
00000000
00000000
00000010
00100000
00000000
00000000
00000000
00000100
00000000
00000100
00000000
,
00100000
00100000
00000010
00000010
01000000
01000000
00000100
00000010
,
00100000
01000000
00000100
00100000
01000000
00000010
00100000
00100000
,
00000100
00000000
00000100
00000000
00100000
00000000
01000000
00000000
00000100
00000000
00000010
00000000
10000001
00000000
00000000
00100000
,
00000100
00000000
00000000
00000000
00011000
00000000
00000000
00000010
01000000
00000000
00000000
00000000
00100000
00000000
00100000
00000000
,
00000100
00000100
01000000
01000000
00000010
00000010
00100000
01000000
,
00000100
00000010
00100000
00000100
00000010
01000000
00000100
00000100
,
00100000
00000000
00100000
00000000
00000100
00000000
00000010
00000000
00100000
00000000
01000000
00000000
10000001
00000000
00000000
00000100
,
00100000
00000000
00000000
00000000
00011000
00000000
00000000
01000000
00000010
00000000
00000000
00000000
00100000
00000100
00000000
01000000
,
00000010
00000000
00000000
00000000
00100000
00000100
00000000
00100000
01000000
00000000
00000000
00000000
00000010
01000000
00000000
00000100
,
00100000
00000000
00000000
00000000
00100000
00100000
00000000
01000000
00000010
00000000
00000000
00000000
00000100
00000100
00000100
00000100
,
10000000
00000000
00000000
00000000
00100000
00100000
00100000
00100000
00000001
00000000
00000000
00000000
01000000
00000010
01000000
00000010
,
00000001
00000000
00000000
00000000
00000010
01000000
00000010
01000000
10000000
00000000
00000000
00000000
00100000
00000000
00000000
00100000
,
00000100
00000000
00000000
00000000
00000100
00000000
00000000
00000100
00100000
00000000
00000000
00000000
00000100
00000000
00000000
00100000
,
01000000
00000000
00000000
00000000
00100000
00000000
00000000
00000100
00000010
00000000
00000000
00000000
00100000
00000000
00000000
00100000
,
00000010
00000000
00000000
00000000
00000100
00000000
00000000
00000100
01000000
00000000
00000000
00000000
01000000
00000000
00000000
01000000
,
00000010
00000000
00000000
00000000
00000100
00000000
00000000
00000100
00100000
00000000
00000000
00000000
00100000
00000000
00000000
00000100
,
00000010
00000000
00000000
00000000
00000100
00000000
00000000
00100000
01000000
00000000
00000000
00000000
00100000
00000000
00000000
00000100
,
00000010
00000000
00000000
00000000
00000100
00000000
00000000
00100000
01000000
00000000
00000000
00000000
00000100
00000000
00000000
00100000
,
00000100
00000000
00000000
00000000
00000010
00000000
00000000
01000000
00000010
00000000
00000000
00000000
00100000
00000000
00000000
00000100
,
00000010
00000000
00000000
00000000
00000100
00000000
00000000
00100000
01000000
00000000
00000000
00000000
00000010
00000000
00000000
00100000
,
00000100
00000000
00000000
00000000
01000000
00000000
00000000
00000100
00100000
00000000
00000000
00000000
10000001
00000000
00000000
00000000
;
