#TITLE:Kamikaze;
#SUBTITLE:;
#ARTIST:RIDGE RACER;
#TITLETRANSLIT:;
#SUBTITLETRANSLIT:;
#ARTISTTRANSLIT:;
#GENRE:;
#CREDIT:locuuraa;
#LYRICSPATH:;
#MUSIC:Kamikaze.ogg;
#OFFSET:0.880;
#SAMPLESTART:11.560;
#SAMPLELENGTH:12.000;
#SELECTABLE:YES;
#BPMS:0.000=158.060,82.500=400.000,88.000=158.060,102.000=800.000,108.000=158.060,142.500=110.000,153.500=70.000,160.500=110.000,171.750=158.060;
#STOPS:;
#KEYSOUNDS:;
#BANNER:Kamikaze.png;
#BACKGROUND:Kamikaze.png;
#CDTITLE:../CDTitles/4DSS.png;
#BGCHANGES:-14.700=Kamikaze.avi=1.000=0=0=1,
229.000=Kamikaze.png=1.000=0=0=1,
99999=-nosongbg-=1.000=0=0=0
;
#NOTES:
     ds3ddx-single:
     Hard:
     Medium:
     6:
     :
00000000
00000000
00000000
00000000
,
00000000
00000000
00000000
00000000
00010000
00000000
00000000
00000101
,
00000000
00000000
00000000
00000000
00010000
00000000
00000000
10100000
,
00000000
00000000
00000000
00000010
00000000
00000010
00000000
01000000
,
00000000
00000010
00000000
00110000
00000000
00000000
00000000
10000001
,
00000000
00000000
00000000
00000100
00000000
00100000
00000000
00000001
,
00000000
01000000
00000000
00010000
00000000
00000001
00000000
10000000
,
00000000
00000010
00000000
01000000
00000000
00000100
00000000
00100000
,
00000000
10000000
00000000
00000001
00000000
00010000
00000000
01000000
,
00000000
00000001
00000000
01000000
00000000
00000010
00000000
00000100
,
00000000
00100000
00000000
00000001
00000000
10000000
00000000
00010000
,
00000000
10000001
00000000
00100000
00000000
00000100
00000000
01000000
,
00000000
00010000
00000000
00000001
00000000
00000000
00000000
00000000
,
00000000
00000000
00000000
00000000
00000000
00000010
00000000
00000010
,
00000000
01000000
00000000
00000000
00000100
00000000
00000000
11000000
00000000
00000000
00000000
00100000
00000000
00000000
00100000
00000000
,
00000000
00000010
00000000
00000000
01000000
00000000
00000000
00000011
00000000
00000000
00100000
00000000
00000000
00000100
00000000
00000000
,
00000000
00000000
01000000
00000000
00000000
00000010
00000000
10100000
00000000
00000000
00000000
00000000
00000100
00000000
00000000
00000100
,
00000000
00000000
00000000
00000000
00000000
00000000
01000000
00000000
00000000
00000000
00000000
00000000
00000000
00000000
00000000
00000010
00000000
00000000
00000000
00000000
00000000
00000000
00000000
00000000
11000011
00000000
00000000
00000000
00000000
00000000
00000000
00000000
00000100
00000000
00000000
00000000
00000000
00000000
00000000
00000000
00000000
00000000
00100000
00000000
00000000
00000000
00000000
00000000
,
00000000
00000000
00000100
00000000
00000000
01000000
00000000
00000000
11000101
00000000
00000000
00000000
00100000
00000000
00000000
00100000
,
00000000
00000010
00000000
00000000
01000000
00000000
00000000
00000000
00000101
00000000
00000000
00100000
00000000
00000000
00000010
00000000
,
01000000
00000000
00000000
00000100
00000000
00000000
00100000
00000000
00000000
00000100
00000000
00000000
00000000
00000000
00000000
00000000
,
00000000
00000000
00000000
00000000
,
00000000
00000000
00000000
00000000
00100000
01000000
00000100
00000010
,
01000000
00000100
00100000
00000100
00000000
00100000
00000010
01000000
,
00000100
00100000
00000010
01000000
00000000
00000100
00000100
01000000
,
00000010
00100000
00000000
00000011
00000000
00000000
00000000
00000000
,
00000000
00000000
00000000
00000000
,
00000000
00000000
00000000
00000000
00000000
00100000
00000000
00000100
,
00000000
01000000
00000100
00000000
11000101
00000000
00100000
00000000
,
00000100
00000000
01000000
00000000
00000000
00000000
00000010
00000000
00000000
11000011
00000000
00000000
00000000
00100000
00000000
00100000
,
00000000
00000000
00000000
00000010
00000000
01000000
00000000
00000000
00000000
11000011
00000000
00000000
00000000
00000100
00000000
00000000
,
00100000
00000000
00000000
00000100
00000000
00000100
00000000
00000000
11000000
00000000
00000000
00000010
00000000
00000000
00000010
00000000
,
00000000
00000000
01000000
00000000
00000100
00000000
10100000
00000000
00000000
00000101
00000000
00000000
01000000
00000000
01000000
00000000
,
00000000
00000010
00000000
00000000
01000000
00000000
00000000
00000000
00010100
00000000
00000000
00000000
00100000
00000000
00000000
00000000
,
00000010
00000000
00000000
01000000
00000000
00000010
00000000
00000000
10100001
00000000
00000000
00000000
00000000
00000000
00000000
00000000
,
00000000
00000000
00000000
00000000
00000000
00000000
00000000
00000000
00000000
00000000
00100000
00000101
00000000
01000000
00000000
01000000
,
00000000
00000000
00000000
00000000
00000000
00000000
00000000
00000000
00000100
00000000
00000000
00000000
00000000
00000000
00000000
11000000
00000000
00000000
00000000
00000000
00000000
00000000
00000000
00000000
00000100
00000000
00000000
00000000
00000000
00000000
00000000
00000000
00000000
00000010
00000000
00000000
00000000
00000000
00000000
01000000
00000000
00000000
00000000
00000000
00000000
00000000
00000000
00000000
,
00000100
00000000
00100000
00000000
00000000
01000000
00000000
00000000
00000011
00000000
00000000
01000000
00000000
00000000
00000100
00000000
,
00000000
00100000
00000000
00000000
00000010
00000000
00000000
00100000
00000100
00000000
00000010
00100000
00000000
00000100
00000000
01000000
,
00000000
00000010
00000000
00110000
00000000
01000000
00000010
00000000
01000000
00000000
00000100
00000000
00100000
00000011
00000000
00100010
,
00000000
01000000
00000000
00000010
01000000
00000000
00000100
00000000
00000100
00000000
01000000
00000000
00000000
00100000
00000010
00000000
,
00000000
11000000
00000000
00000100
00000000
00000000
00100000
00000000
00000000
00000100
00000000
00100000
00000000
00000000
00000000
00000010
,
00000000
00100000
00000000
10000101
00000000
00000000
00100000
00000000
00000000
00100000
00000000
00000100
00000000
00000000
00000000
00000000
,
00100000
00000000
00000000
00100000
00000000
00000100
00000000
00100000
00000000
00000000
00000100
00000000
01000000
00000011
00000000
00000000
,
00000000
00000100
00000000
00000100
00000000
01000000
00000000
00000010
00000000
00100000
00000000
00000010
00000000
00000000
11000000
00000000
,
00000000
00000100
00100000
00000000
00000000
00000010
00000000
00000010
00000000
01000000
00000000
00000000
00000000
00000101
00000000
00000000
,
00000000
01000000
00000000
00000100
00000000
00100000
00000000
00000100
00000000
00000000
00100000
00000000
00010100
00000000
00000000
01000000
,
00000000
01000000
00000000
01000000
00000000
00000010
00000000
00100000
00000000
00000100
00000000
00100000
00000000
00000010
11000000
00000000
,
00000000
00000100
00000000
00100000
00000000
00000010
00000000
01000000
00000000
01000000
00000000
00000000
00000011
00000000
00000000
00000000
,
00100000
00000100
00100000
00000010
01000000
00100000
00000100
01000000
,
00000100
00100000
00000010
01000000
00000100
00000010
00100000
00000100
,
01000000
00000010
01000000
00000100
00100000
00000100
01000000
00000100
,
00100000
00000000
00000010
00000000
01000000
00000000
00000000
00000000
00000100
00000000
00000000
11000000
00000000
00000000
00000000
00000000
,
00100000
00000000
00000000
00000000
00000000
00000000
00100000
00000000
00000000
00000000
00000000
00000000
00000010
00000000
00000000
00000000
01000000
00000000
00000000
00000000
00000000
00000100
00000000
00000000
00000000
00000000
00000000
00000000
00000000
00000000
11000000
00000000
00000000
00000000
00000000
00000000
00000000
00000000
00000000
00000000
00000000
00000000
00000100
00000000
00000000
00000000
00000000
00000000
,
00100000
00000100
01000000
00000100
00100000
00000010
01000000
00000100
,
00100000
00000010
01000000
00000100
00100000
00000010
01000000
00000010
,
00000010
01000000
00000100
00100000
00000010
01000000
00100000
00000100
,
01000000
00000010
00000100
00100000
00000010
01000000
01000000
00000100
,
00100000
00000010
00000100
01000000
00000010
11000000
00000100
00100000
,
00000010
00000100
00100000
01000000
00100000
00000010
00100000
00000100
,
01000000
00000010
00100000
00000100
01000000
00000010
00000100
00100000
,
00000010
01000000
00000100
00000000
00000000
10000001
00000000
00000000
;
#NOTES:
     ds3ddx-double:
     Club:
     Easy:
     6:
     :
0000000000000000
0000000000000000
0000000000000000
0000000000000000
,
0000000000000000
0000000000000000
0000000000000000
0000000000000000
0001000000000000
0000000000000000
0000000000000000
0000010100000000
,
0000000000000000
0000000000000000
0000000000000000
0000000000000000
0001000000000000
0000000000000000
0000000000000000
1010000000000000
,
0000000000000000
0000000000000000
0000000000000000
0000001000000000
0000000000000000
0000001000000000
0000000000000000
0100000000000000
,
0000000000000000
0000001000000000
0000000000000000
0011000000000000
0000000000000000
0000000000000000
0000000000000000
1000000100000000
,
0000000000000000
0000000000000000
0000000000000000
0000010000000000
0000000000000000
0000000000100000
0000000000000000
0000000001000000
,
0000000000000000
0000000000000010
0000000000000000
0000000000010000
0000000000000000
0000000000000001
0000000000000000
0000000010000000
,
0000000000000000
0000000000000010
0000000000000000
0000000001000000
0000000000000000
0000000000000100
0000000000000000
0000000000100000
,
0000000000000000
0000001000000000
0000000000000000
0000000000100000
0000000000000000
0000010000000000
0000000000000000
0000001000000000
,
0000000000000000
0100000000000000
0000000000000000
0000001000000000
0000000000000000
0100000000000000
0000000000000000
0000010000000000
,
0000000000000000
0010000000000000
0000000000000000
0000000100000000
0000000000000000
1000000000000000
0000000000000000
0001000000000000
,
0000000000000000
1000000100000000
0000000000000000
0010000000000000
0000000000000000
0000010000000000
0000000000000000
0100000000000000
,
0000000000000000
0001000000000000
0000000000000000
0000000100000000
0000000000000000
0000000000000000
0000000000000000
0000000000000000
,
0000000000000000
0000000000000000
0000000000000000
0000000000000000
0000000000000000
0000001000000000
0000000000000000
0000001000000000
,
0000000000000000
0000010000000000
0000000000000000
0000000000000000
0000000000100000
0000000000000000
0000000000000000
0000000001000000
0000000000000000
0000000000000000
0000000000000000
0000000000000100
0000000000000000
0000000000000000
0000000000000100
0000000000000000
,
0000000000000000
0000000001000000
0000000000000000
0000000000000000
0000000000000010
0000000000000000
0000000000000000
0000000011000000
0000000000000000
0000000000000000
0000000000000100
0000000000000000
0000000000000000
0000000000000100
0000000000000000
0000000000000000
,
0000000000000000
0000000000000000
0000000001000000
0000000000000000
0000000000000000
0000000000000010
0000000000000000
0000000010100000
0000000000000000
0000000000000000
0000000000000000
0000000000000000
0000000000000100
0000000000000000
0000000000000000
0000000000000100
,
0000000000000000
0000000000000000
0000000000000000
0000000000000000
0000000000000000
0000000000000000
0000000001000000
0000000000000000
0000000000000000
0000000000000000
0000000000000000
0000000000000000
0000000000000000
0000000000000000
0000000000000000
0000000000000010
0000000000000000
0000000000000000
0000000000000000
0000000000000000
0000000000000000
0000000000000000
0000000000000000
0000000000000000
0000000000000010
0000000000000000
0000000000000000
0000000000000000
0000000000000000
0000000000000000
0000000000000000
0000000000000000
0000000001000000
0000000000000000
0000000000000000
0000000000000000
0000000000000000
0000000000000000
0000000000000000
0000000000000000
0000000000000000
0000000000000000
0000000000100000
0000000000000000
0000000000000000
0000000000000000
0000000000000000
0000000000000000
,
0000000000000000
0000000000000000
0000010000000000
0000000000000000
0000000000000000
0000001000000000
0000000000000000
0000000000000000
1100010100000000
0000000000000000
0000000000000000
0000000000000000
0010000000000000
0000000000000000
0000000000000000
0010000000000000
,
0000000000000000
0000001000000000
0000000000000000
0000000000000000
0100000000000000
0000000000000000
0000000000000000
0000000000000000
0000010100000000
0000000000000000
0000000000000000
0010000000000000
0000000000000000
0000000000000000
0000001000000000
0000000000000000
,
0100000000000000
0000000000000000
0000000000000000
0000010000000000
0000000000000000
0000000000000000
0010000000000000
0000000000000000
0000000000000000
0000010000000000
0000000000000000
0000000000000000
0000000000000000
0000000000000000
0000000000000000
0000000000000000
,
0000000000000000
0000000000000000
0000000000000000
0000000000000000
,
0000000000000000
0000000000000000
0000000000000000
0000000000000000
0010000000000000
0100000000000000
0000010000000000
0000001000000000
,
0100000000000000
0000010000000000
0010000000000000
0000010000000000
0000000000000000
0000001000000000
0000010000000000
0000000000100000
,
0000000001000000
0000000000000010
0000000001000000
0000000000000010
0000000000000000
0000000000000100
0000000000000100
0000000001000000
,
0000000000000010
0000000000100000
0000000000000000
0000000000000011
0000000000000000
0000000000000000
0000000000000000
0000000000000000
,
0000000000000000
0000000000000000
0000000000000000
0000000000000000
,
0000000000000000
0000000000000000
0000000000000000
0000000000000000
0000000000000000
0000000000100000
0000000000000000
0000010000000000
,
0000000000000000
0000000001000000
0000010000000000
0000000000000000
0000001000100000
0000000000000000
0000010000000000
0000000000000000
,
0000001000000000
0000000000000000
0100000000000000
0000000000000000
0000000000000000
0000000000000000
0000001000000000
0000000000000000
0000000000000000
1100001100000000
0000000000000000
0000000000000000
0000000000000000
0010000000000000
0000000000000000
0010000000000000
,
0000000000000000
0000000000000000
0000000000000000
0000001000000000
0000000000000000
0100000000000000
0000000000000000
0000000000000000
0000000000000000
1100001100000000
0000000000000000
0000000000000000
0000000000000000
0000010000000000
0000000000000000
0000000000000000
,
0010000000000000
0000000000000000
0000000000000000
0000010000000000
0000000000000000
0000010000000000
0000000000000000
0000000000000000
1100000000000000
0000000000000000
0000000000000000
0000001000000000
0000000000000000
0000000000000000
0000001000000000
0000000000000000
,
0000000000000000
0000000000000000
0100000000000000
0000000000000000
0000010000000000
0000000000000000
1010000000000000
0000000000000000
0000000000000000
0000010100000000
0000000000000000
0000000000000000
0100000000000000
0000000000000000
0100000000000000
0000000000000000
,
0000000000000000
0000001000000000
0000000000000000
0000000000000000
0100000000000000
0000000000000000
0000000000000000
0000000000000000
0001010000000000
0000000000000000
0000000000000000
0000000000000000
0010000000000000
0000000000000000
0000000000000000
0000000000000000
,
0000001000000000
0000000000000000
0000000000000000
0100000000000000
0000000000000000
0000001000000000
0000000000000000
0000000000000000
1010000100000000
0000000000000000
0000000000000000
0000000000000000
0000000000000000
0000000000000000
0000000000000000
0000000000000000
,
0000000000000000
0000000000000000
0000000000000000
0000000000000000
0000000000000000
0000000000000000
0000000000000000
0000000000000000
0000000000000000
0000000000000000
0000010000000000
0000000000100000
0000000000000000
0000001000000000
0000000000000000
0000001000000000
,
0000000000000000
0000000000000000
0000000000000000
0000000000000000
0000000000000000
0000000000000000
0000000000000000
0000000000000000
0000000001000000
0000000000000000
0000000000000000
0000000000000000
0000000000000000
0000000000000000
0000000000000000
0000001000000000
0000000000000000
0000000000000000
0000000000000000
0000000000000000
0000000000000000
0000000000000000
0000000000000000
0000000000000000
0000000000100000
0000000000000000
0000000000000000
0000000000000000
0000000000000000
0000000000000000
0000000000000000
0000000000000000
0000000000000000
0000000001000000
0000000000000000
0000000000000000
0000000000000000
0000000000000000
0000000000000000
0000000000000010
0000000000000000
0000000000000000
0000000000000000
0000000000000000
0000000000000000
0000000000000000
0000000000000000
0000000000000000
,
0000000001000000
0000000000000000
0000000000100000
0000000000000000
0000000000000000
0000000000000010
0000000000000000
0000000000000000
0000000000000011
0000000000000000
0000000000000000
0000000001000000
0000000000000000
0000000000000000
0000000000000100
0000000000000000
,
0000000000000000
0000000001000000
0000000000000000
0000000000000000
0000000000100000
0000000000000000
0000000000000000
0000010000000000
0000000001000000
0000000000000000
0000001000000000
0000000000100000
0000000000000000
0000010000000000
0000000000000000
0000000001000000
,
0000000000000000
0000000000100000
0000000000000000
0000001000000000
0000000000000000
0000000001000000
0000001000000000
0000000000000000
0000010000000000
0000000000000000
0000001000000000
0000000000000000
0010000000000000
0000010000000000
0000000000000000
0000001000000000
,
0000000000000000
0100000000000000
0000000000000000
0000001000000000
0000000000000000
0100000000000000
0000010000000000
0000000000000000
0000010000000000
0000000000000000
0100000000000000
0000000000000000
0000000000000000
0010000000000000
0000001000000000
0000000000000000
,
0000000000000000
1100000000000000
0000000000000000
0000010000000000
0000000000000000
0000000000000000
0010000000000000
0000000000000000
0000000000000000
0000010000000000
0000000000000000
0010000000000000
0000000000000000
0000000000000000
0000000000000000
0000001000000000
,
0000000000000000
0010000000000000
0000000000000000
1000010100000000
0000000000000000
0000000000000000
0000001000000000
0000000000000000
0000000000000000
0000000000100000
0000000000000000
0000000001000000
0000000000000000
0000000000000000
0000000000000000
0000000000000000
,
0000000000000100
0000000000000000
0000000000000000
0000000000100000
0000000000000000
0000000000000100
0000000000000000
0000000000100000
0000000000000000
0000000000000000
0000000000000100
0000000000000000
0000000001000000
0000000000000011
0000000000000000
0000000000000000
,
0000000000000000
0000000000000100
0000000000000000
0000000000000100
0000000000000000
0000000001000000
0000000000000000
0000000000000010
0000000000000000
0000000000100000
0000000000000000
0000000000000010
0000000000000000
0000000000000000
0000000001000000
0000000000000000
,
0000000000000000
0000000000100000
0000010000000000
0000000000000000
0000000000000000
0000001000000000
0000000000000000
0100000000000000
0000000000000000
0000001000000000
0000000000000000
0000000000000000
0000000000000000
0000010100000000
0000000000000000
0000000000000000
,
0000000000000000
0100000000000000
0000000000000000
0000010000000000
0000000000000000
0010000000000000
0000000000000000
0000010000000000
0000000000000000
0000000000000000
0010000000000000
0000000000000000
0001010000000000
0000000000000000
0000000000000000
0100000000000000
,
0000000000000000
0100000000000000
0000000000000000
0100000000000000
0000000000000000
0000001000000000
0000000000000000
0010000000000000
0000000000000000
0000010000000000
0000000000000000
0010000000000000
0000000000000000
0000001000000000
1100000000000000
0000000000000000
,
0000000000000000
0000010000000000
0000000000000000
0010000000000000
0000000000000000
0000001000000000
0000000000000000
0100000000000000
0000000000000000
0100000000000000
0000000000000000
0000000000000000
0000001000000000
0000000000000000
0000000000000000
0000000000000000
,
0000010000000000
0000000000100000
0000001000000000
0000000001000000
0000000000100000
0000000000000100
0000000001000000
0000000000000010
,
0000000001000000
0000000000000100
0000000001000000
0000000001000000
0000000000000100
0000000000000010
0000000000100000
0000000000000100
,
0000000001000000
0000000000000010
0000000001000000
0000000000100000
0000010000000000
0000001000000000
0100000000000000
0000010000000000
,
0010000000000000
0000000000000000
0000001000000000
0000000000000000
0100000000000000
0000000000000000
0000000000000000
0000000000000000
0000010000000000
0000000000000000
0000000000000000
1100000000000000
0000000000000000
0000000000000000
0000000000000000
0000000000000000
,
0010000000000000
0000000000000000
0000000000000000
0000000000000000
0000000000000000
0000000000000000
0010000000000000
0000000000000000
0000000000000000
0000000000000000
0000000000000000
0000000000000000
0000001000000000
0000000000000000
0000000000000000
0000000000000000
0100000000000000
0000000000000000
0000000000000000
0000000000000000
0000000000000000
0000010000000000
0000000000000000
0000000000000000
0000000000000000
0000000000000000
0000000000000000
0000000000000000
0000000000000000
0000000000000000
1100000000000000
0000000000000000
0000000000000000
0000000000000000
0000000000000000
0000000000000000
0000000000000000
0000000000000000
0000000000000000
0000000000000000
0000000000000000
0000000000000000
0000010000000000
0000000000000000
0000000000000000
0000000000000000
0000000000000000
0000000000000000
,
0010000000000000
0000010000000000
0100000000000000
0000010000000000
0010000000000000
0000001000000000
0000010000000000
0000000001000000
,
0000000000100000
0000000001000000
0000000000000010
0000000000000100
0000000000100000
0000000000000010
0000000001000000
0000000000000010
,
0000000000000010
0000000001000000
0000000000000100
0000000000100000
0000000000000010
0000000001000000
0000000000100000
0000010000000000
,
0000000001000000
0000010000000000
0000000001000000
0000010000000000
0000001000000000
0100000000000000
0000001000000000
0010000000000000
,
0000010000000000
0100000000000000
0000010000000000
0100000000000000
0000001000000000
0100000000000000
0000010000000000
0010000000000000
,
0000001000000000
0100000000000000
0000001000000000
0000010000000000
0000000000100000
0000000001000000
0000000000000010
0000000000000100
,
0000000000000010
0000000001000000
0000000000100000
0000000001000000
0000000000000100
0000000000000010
0000000000000100
0000000001000000
,
0000000000100000
0000010000000000
0000001000000000
0000000000000000
0000000000000000
1000000100000000
0000000000000000
0000000000000000
;
