#TITLE:SMOKE;
#SUBTITLE:;
#ARTIST:Mr. Ed Jumps the Gun;
#TITLETRANSLIT:;
#SUBTITLETRANSLIT:;
#ARTISTTRANSLIT:;
#GENRE:;
#CREDIT:locuuraa;
#LYRICSPATH:;
#MUSIC:SMOKE.ogg;
#OFFSET:0.060;
#SAMPLESTART:12.020;
#SAMPLELENGTH:12.000;
#SELECTABLE:YES;
#BPMS:0.000=135.000;
#STOPS:;
#KEYSOUNDS:;
#BANNER:SMOKE.png;
#BACKGROUND:SMOKE.png;
#CDTITLE:../CDTitles/4DSS.png;
#BGCHANGES:-14.700=SMOKE.avi=1.000=0=0=1,
229.000=SMOKE.png=1.000=0=0=1,
99999=-nosongbg-=1.000=0=0=0
;
#NOTES:
     ds3ddx-double:
     Club:
     Easy:
     4:
     :
0000000000000000
0000000000000000
0000000000000000
0000000000000000
,
0000000000000000
0010000000000000
0010000000000000
0000010000000000
,
0000010000000000
0000000000100000
0000000000100000
0000000001000000
,
0000000001000000
0000000000000100
0000000000000100
0000000000100000
,
0000000000100000
0000010000100000
0000001001000000
0000000000000000
,
0000000000000000
0010000000000000
0000010000000000
0010000000000000
,
0000010000000000
0100000000000000
0000001000000000
0100000000000000
,
0000001000000000
0000000000100000
0000000001000000
0000000000000100
,
0000000000000000
0000000010000001
0000000000000000
0000000000000000
0000000000000000
0000000000000000
0000000000000000
0000000000000000
,
0000000000000000
0000000000000000
0010000000000000
0000010000000000
0010000000000000
0000000000000000
0000001000000000
0100000000000000
,
0000001000000000
0010010000000000
0010010000000000
0100001000000000
,
0100001000000000
0010000000000000
0001000000000000
0000010000000000
,
1000000000000000
0010000000000000
0000001000000000
0000000000000000
,
0000000000000000
0000000000100000
0000000001000000
0000000000000010
,
0000000000100000
0000000010000000
0000000000000001
0000000000000000
,
0000000000000000
0000000000011000
0000000000000000
0000000010000001
,
0000000000000000
0000000001000000
0000001000000000
0000010000000000
,
0000000000000000
0010000000000000
0000000100000000
0000010000000000
,
1000000000000000
0010000000000000
0100000000000000
0001000000000000
,
0000000000000000
1000000000000000
1000000000000000
0000011000000000
,
0000000000000000
0000010000000000
0000011000000000
0000000001000000
,
0000000001100000
0000000000000001
0000000000000001
0000000000010100
,
0000000000000000
0000000000100000
0000000000100100
0000000001000000
,
0000001001000000
0000000000100000
0000010000000000
0000001000000000
,
0000000001000000
0000000100000000
0000000001000000
0000000000000000
,
0000000000000000
0000010000000000
0000001000000000
0000001000000000
,
0000000000000000
0100001000000000
0000011000000000
0010010000000000
,
0000000000000000
1010000000000000
0000010100000000
0100000000000000
,
0100000000000000
0000010100000000
0000000000100000
0000000001000000
,
0000000001000000
0000000000010000
0000000000000001
0000000000000100
,
0000000000000100
0000000000000000
0000000000100000
0000000001000000
,
0000001000000000
1000000000000000
0001000000000000
0000010000000000
,
0000010000000000
0000000100000000
0001000000000000
0010000000000000
,
0010000000000000
0000001000000000
0000001000000000
0000000001000000
,
0000000001000000
0000000000000010
0000000000000010
0000000000000100
,
0000000000000100
0000000000100000
0000000001000000
0000001000000000
,
0000010000000000
0000001000000000
0100000000000000
0010000000000000
,
0000000000000000
0000010000000000
0001000000000000
0010000000000000
,
0000000000000000
0010000000000000
0000000000000000
0001000000000000
0000000000000000
0000000000000000
0000001000000000
0000000000000000
,
1100000000000000
0000010100000000
0000000000100000
0000000000110000
,
0000000000000101
0000000010000000
0000000000000011
0000000000011000
,
0000000010000001
0000000000100000
0000000001000000
0000000010000000
,
0000000000000000
0000000000100000
0000000001000000
0000000110000000
,
0000000000000000
0000010000000000
0000010000000000
0010000000000000
,
0010000000000000
0100000000000000
0000001100000000
0000000000000000
;
#NOTES:
     ds3ddx-single:
     Hard:
     Medium:
     4:
     :
00000000
00000000
00000000
00000000
,
00000000
00000000
00000000
00000000
,
00000000
00000000
00000000
00000000
,
00000000
00000000
00000000
00000000
,
00000000
00000000
00000000
00000000
,
00000000
00100000
00000100
00100000
,
00000100
01000000
00000010
01000000
,
00000010
00000000
00100000
00010001
00000000
00000000
00000100
10010000
,
00000000
10000001
00000000
00000000
00000000
00000000
00000000
00000000
,
00000000
00000000
00100000
00000100
00100000
00000000
00000010
01000000
,
00000010
00100100
00100100
01000010
,
01000010
00000000
00100000
00000000
00010000
00000000
00000100
00000001
,
10000000
00000000
00100000
01000000
00000010
00000100
00000000
00000000
,
00000000
00000000
00100000
00000000
00000010
00000000
01000000
00000100
,
00100000
00000000
10000000
00010000
00000001
00010000
00000000
00000000
,
00000000
00011000
00000000
10000001
,
00000000
01000000
00000010
00100100
,
00000000
00000000
00010000
00100000
00000001
00000000
00000100
00010000
,
10000000
00000000
00100000
00000010
01000000
00000100
00010000
00000000
,
00000000
00000000
10000000
00000001
10000000
00000000
00110000
00000000
,
00000000
00000100
00000110
00100000
,
01100000
00000000
00000001
10000000
00000001
00000000
00010100
00000000
,
00000000
00100000
00100100
00000010
,
01000010
00000000
00100000
01000000
00000100
00000010
00100000
00000100
,
01000000
00000010
00010000
00000000
10000001
00000000
00000000
00000000
,
00000000
00010000
00000100
00010000
00100000
01000000
00000010
00001000
,
00000000
01000010
00000110
00100100
,
00000000
00000000
10100000
00000000
00000101
00000000
01000000
00000010
,
01000000
00000000
00000101
00000000
10100000
00000000
00000010
01000000
,
00000010
00000000
00010000
10000000
00000001
10000000
00000100
00100000
,
00000100
00000000
00000100
01000000
,
00000010
00000000
10000000
00000000
00010000
00000000
00000100
00000001
,
00000100
00000000
00000001
00000000
00010000
00000000
00100000
10000000
,
00100000
00000010
00000010
01000000
,
01000000
00100000
00100000
00000100
,
00000100
00100000
01000000
00000010
,
00000100
00000010
01000000
00100000
,
00000000
00000000
00000100
00000000
00010000
00000000
00100000
01000000
,
00000000
00100000
00000000
00010000
00000000
00000100
00000010
00000000
,
11000000
00000101
10100000
00000101
,
10100000
00010000
00000011
00011000
,
10000001
00000000
00100000
00000000
01000000
00010000
00000001
00000000
,
00000000
00000000
00000100
00000000
00000010
00010000
10000000
00000000
,
00000000
00000100
00000100
00100000
,
00100000
01000000
00000011
00000000
;
#NOTES:
     ds3ddx-single:
     Easy:
     Easy:
     3:
     :
00000000
00000000
00000000
00000000
,
00000000
00000000
00000000
00000000
,
00000000
00000000
00000000
00000000
,
00000000
00000000
00000000
00000000
,
00000000
00000000
00000000
00000000
,
00000000
00100000
00000100
00100000
,
00000100
01000000
00000010
01000000
,
00000010
00100000
00000100
00000100
,
10000001
00000000
00000000
00000000
,
00000000
00100000
00100000
00000010
,
00000010
00100000
00100000
00000010
,
00000010
00100000
00010000
00000100
,
10000000
00100000
00000010
00000000
,
00000000
00100000
00000010
01000000
,
00100000
10000000
00000001
00000000
,
00000000
00011000
00000000
10000001
,
00000000
01000000
00000010
00100100
,
00000000
00010000
00000001
00000100
,
10000000
00100000
01000000
00010000
,
00000000
10000000
10000000
00110000
,
00000000
00000100
00000110
00100000
,
01100000
00000001
00000001
00000100
,
00000000
00100000
00100000
00000010
,
00000010
00100000
00000100
00100000
,
01000000
00010000
10000001
00000000
,
00000000
00000100
00100000
00000010
,
00000000
01000010
00000010
00100100
,
00000000
10100000
00000101
01000000
,
01000000
00000101
10100000
00000010
,
00000010
00010000
00000001
00000100
,
00000100
00000000
00000100
01000000
,
00000010
10000000
00010000
00000100
,
00000100
00000000
00010000
00100000
,
00100000
00000010
00000010
01000000
,
01000000
00100000
00100000
00000100
,
00000100
00100000
01000000
00000010
,
00000100
00000010
01000000
00100000
,
00000000
00000100
00010000
00100000
,
00000000
00010000
00000100
00000010
,
01000000
00000100
00100000
00000100
,
00100000
00010000
00000001
00010000
,
10000001
00100000
01000000
00000001
,
00000000
00000100
00000010
10000000
,
00000000
00000100
00000100
00100000
,
00100000
01000000
00000011
00000000
;
