#TITLE:INSERTiON;
#SUBTITLE:;
#ARTIST:Naoki Underground;
#TITLETRANSLIT:;
#SUBTITLETRANSLIT:;
#ARTISTTRANSLIT:;
#GENRE:;
#CREDIT:locuuraa;
#LYRICSPATH:;
#MUSIC:INSERTiON.ogg;
#OFFSET:-0.100;
#SAMPLESTART:12.000;
#SAMPLELENGTH:12.000;
#SELECTABLE:YES;
#BPMS:0.000=139.500,101.000=80.000,125.250=100.000,125.500=140.000,126.000=139.500,194.000=70.000,198.667=90.000,199.167=120.000,200.667=150.000,201.083=200.000,201.250=170.000,205.000=250.000,209.000=80.000;
#STOPS:;
#KEYSOUNDS:;
#BANNER:INSERTiON.png;
#BACKGROUND:INSERTiON.png;
#CDTITLE:../CDTitles/4DSS.png;
#BGCHANGES:-14.700=INSERTiON.avi=1.000=0=0=1,
229.000=INSERTiON.png=1.000=0=0=1,
99999=-nosongbg-=1.000=0=0=0
;
#NOTES:
     ds3ddx-double:
     Club:
     Easy:
     6:
     :
0000000000000000
0000000000000000
0000000000000000
0000000000000000
,
0100000000000000
0000001000000000
0100000000000000
0000001000000000
0010000000000000
0000001000000000
0010000000000000
0000001000000000
,
0100000000000000
0000001000000000
0100000000000000
0000001000000000
0010000000000000
0000010000000000
0010000000000000
0000010000000000
,
0000001000000000
0100000000000000
0000001000000000
0100000000000000
0000010000000000
0010000000000000
0000001000000000
0000000000100000
,
0000000000000100
0000000000000010
0000000001000000
0000000000000100
0000000000100000
0000000000000010
0000000000100000
0000000000000010
,
0000000001000000
0000000000100000
0000010000000000
0000000001000000
0000010000000000
0000000001000000
0000010000000000
0000001000000000
,
0000010000000000
0000001000000000
0010000000000000
0100000000000000
0010000000000000
0100001000000000
0000010000000000
0000001000000000
,
0100000000000000
0000010000000000
0010000000000000
0000010000000000
0010000000000000
0000001000000000
0100000000000000
0000010000000000
,
0000001000000000
0000000000100000
0000000001000000
0000010000000000
0000000000100000
0000010000000000
0000000000100000
0000001000000000
,
0000000001000000
0000001000000000
0000000001000000
0000001000000000
0000010000000000
0010000000000000
0000001000000000
0010000000000000
,
0100000000000000
0010000000000000
0100000000000000
0000010000000000
0000001000000000
0000010000000000
0000001000000000
0100000000000000
,
0000010000000000
0100000000000000
0000010000000000
0010000000000000
0000001000000000
0000010000000000
0000000000100000
0000000001000000
,
0000000000000010
0000000001000000
0000000000000010
0000000001000000
0000000000000100
0000000000100000
0000000000000010
0000000000100000
,
0000000000000010
0000000000100000
0000000000000100
0000000001000000
0000000000100000
0000010000000000
0000001000000000
0100000000000000
,
0000001000000000
0100000000000000
0000001000000000
0000010000000000
0010000000000000
0000010000000000
0010000000000000
0000010000000000
,
0000001000000000
0010000000000000
0100000000000000
0000010000000000
0000001000000000
0010000000000000
0100000000000000
0000001000000000
,
0000010000000000
0010000000000000
0000001000000000
0000010000000000
0000001000000000
0000000000000000
0000010000000000
0000000001000000
,
0000001000000000
0000000000100000
0000010000000000
0000000000100000
0000010000000000
0000000000100000
0000000001000000
0000010000000000
,
0000001000000000
0010000000000000
0000001000000000
0010000000000000
0000010000000000
0100000000000000
0000010000000000
0100000000000000
,
0000010000000000
0000001000000000
0010000000000000
0000010000000000
0100000000000000
0000001000000000
0100000000000000
0000010000000000
,
0010000000000000
0000001000000000
0000010000000000
0100000000000000
0010000000000000
0000001000000000
0100000000000000
0000001000000000
,
0000010000000000
0000001000000000
0000000000100000
0000000001000000
0000010000000000
0000000001000000
0000010000000000
0000000001000000
,
0000000000100000
0000010000000000
0000001000000000
0100000000000000
0000010000000000
0100000000000000
0010000000000000
0000001000000000
,
0010000000000000
0000010000000000
0100000000000000
0010000000000000
0000010000000000
0010000000000000
0000010000000000
0100000000000000
,
0000001000000000
0000000000000000
0100000000000000
0000000000000000
0000010000000000
0000000000000000
0100000000000000
0000000000000000
0010000000000000
0000000000000000
0000001000000000
0000000000000000
0100000000000000
0000000000000000
0000001000000000
0100000000000000
,
0000001000000000
0100000000000000
0000001000000000
0100000000000000
0000001000000000
0000000000000000
0000000000000000
0000000000000000
0000000000000000
0000000000000000
0000000000000000
0000000000000000
0100000000000000
0000000000000000
0000000000000000
0000000000000000
,
0000001000000000
1100000000000000
0000000100000000
0001010000000000
0000000000000000
0000000000000000
1000000000000000
0000000000000000
,
0000000100000000
0000000000000000
0001000000000000
0001000000000000
0000000000000000
0000000000000000
0000000000000000
0000000000000000
,
0000000000000000
1000000000000000
0000000100000000
0000000000000000
,
0001000000000000
0000000000000000
1000000000000000
0000000000000000
0000000100000000
0000000000000000
1000000000000000
1000000000000000
,
0000000000000000
0000000000000000
0000000000000000
1000000100000000
0000000000000000
0000000000000000
0000000000000000
0000000000000000
,
0001000000000000
1000000100000000
0000000000000000
0000000000000000
,
0000000000000000
0000000000000000
0100000000000000
0000001000000000
0100000000000000
0000001000000000
0010000000000000
0000010000000000
,
0010000000000000
0000010000000000
0010000000000000
0000001000000000
0010000000000000
0000001000000000
0010000000000000
0000001000000000
,
0000010000000000
0000000000100000
0000000001000000
0000000000000010
0000000001000000
0000000000000100
0000000001000000
0000000000000100
,
0000000000100000
0000000000000100
0000000000100000
0000000000000010
0000000000100000
0000000000000100
0000000000100000
0000000000000100
,
0000000001000000
0000000000100000
0000010000000000
0000001000000000
0010000000000000
0100000000000000
0000001000000000
0100000000000000
,
0000010000000000
0010000000000000
0000010000000000
0010000000000000
0000010000000000
0100000000000000
0010000000000000
0000001000000000
,
0100000000000000
0000001000000000
0010000000000000
0000010000000000
0010000000000000
0000010000000000
0100000000000000
0000001000000000
,
0010000000000000
0100000000000000
0010000000000000
0100000000000000
0000010000000000
0000001000000000
0000010000000000
0000001000000000
,
0000000000100000
0000000001000000
0000000000100000
0000000001000000
0000000000000100
0000000000000010
0000000000000100
0000000000000010
,
0000000001000000
0000000000000100
0000000000100000
0000000000000010
0000000001000000
0000000000000100
0000000000100000
0000000000000010
,
0000000000100000
0000000000000100
0000000001000000
0000000000100000
0000000001000000
0000010000000000
0000001000000000
0100000000000000
,
0000001000000000
0100000000000000
0000010000000000
0000001000000000
0010000000000000
0000010000000000
0100000000000000
0000001000000000
,
0100000000000000
0000001000000000
0010000000000000
0000010000000000
0010000000000000
0100000000000000
0000010000000000
0000001000000000
,
0010000000000000
0000010000000000
0100000000000000
0000001000000000
0100000000000000
0000010000000000
0010000000000000
0000001000000000
,
0000010000000000
0000000000100000
0000000001000000
0000000000000010
0000000000000100
0000000000000010
0000000001000000
0000000000100000
,
0000010000000000
0000001000000000
0010000000000000
0000001000000000
0010000000000000
0000001000000000
0010000000000000
0000010000000000
,
0010000000000000
0000010000000000
0100000000000000
0000001000000000
0000000000000000
0000000000000000
0000000000000000
0000000000000000
,
0000000000000000
0000000000000000
0000000000000000
0000000000000000
0000000000000000
0000000000000000
0000000000000000
0000000000000000
0000000000000000
0100000000000000
0000000000000000
0000010000000000
0000000000000000
0000000000000000
0100000000000000
0000000000000000
0010000000000000
0000000000000000
0000000000000000
0010000000000000
0000000000000000
0000000000000000
0000000000000000
0000010000000000
,
0000000000000000
0000000000000000
0000000000000000
0010000000000000
0000000000000000
0000000000000000
0000000000000000
0000000000000000
0000000000000000
0000010000000000
0000000000000000
0000000000000000
0000000000000000
0010000000000000
0000000000000000
0000000000000000
0000000000000000
0000000000000000
0000001000000000
0000000000000000
0000000000000000
0000000000000000
0000000000000000
0000000000000000
0100000000000000
0000000000000000
0000000000000000
0000000000000000
0000000000000000
0000000000000000
0000001000000000
0000000000000000
0000000000000000
0000000000000000
0000000000000000
0000000000000000
0100000000000000
0000000000000000
0000000000000000
0000010000000000
0000000000000000
0000000000000000
0000000000000000
0000000000000000
0000000000000000
0010000000000000
0000000000000000
0000000000000000
,
0000000000000000
0000010000000000
0000000000000000
0010000000000000
0000000000000000
0000000000000000
0000000000000000
0000000000000000
0000000000000000
0000000000000000
0000000000000000
0000000000000000
0000000000000000
0000000000000000
0000000000000000
0000000000000000
,
0000000000000000
0000000000000000
0000000000000000
0000000000000000
0000000000000000
1010010100000000
0000000000000000
0000000000000000
0000000000000000
0000000000000000
0000000000000000
0000000000000000
0000000000000000
0000000000000000
0000000000000000
0000000000000000
;
#NOTES:
     ds3ddx-single:
     Hard:
     Medium:
     6:
     :
00000000
00000000
00000000
00000000
,
01000000
00000010
01000000
00000010
00100000
00000010
00100000
00000010
,
01000000
00000100
01000000
00000100
00100000
00000100
00100000
00000100
,
00000010
01000000
00000010
01000000
00000100
00100000
00000100
00100000
,
00000100
01000000
00000100
01000000
00100000
00000010
00100000
00000010
,
01000000
00000010
00100000
00000100
00100000
00000100
01000000
00000010
,
00000100
00000010
01000000
00100000
01000000
00000010
00000100
00000010
,
01000000
00000100
00100000
00000100
00100000
00000010
01000000
00000100
,
00000010
00000100
01000000
00100000
00000100
00100000
01000000
00100000
,
00000100
00100000
00000100
01000000
00000010
01000000
00000010
00100000
,
01000000
00100000
01000000
00000100
00000010
00000100
00000010
01000000
,
00000100
01000000
00000100
00100000
00000010
00100000
00000010
01000000
,
00000100
00100000
00000010
01000000
00000100
00100000
00000010
00100000
,
01000000
00100000
01000000
00000100
00000010
00000100
00000010
01000000
,
00000010
01000000
00000010
00000100
00100000
00000100
00100000
00000100
,
00000010
00100000
01000000
00000100
00000010
00100000
01000000
00000010
,
00000100
00100000
00000010
01000000
00000100
00100000
00000010
01000000
,
00000100
00000010
00000100
00000010
00100000
01000000
00100000
01000000
,
00000010
00100000
00000010
00100000
00000100
01000000
00000100
01000000
,
00000100
00000010
00100000
00000100
01000000
00000010
01000000
00000100
,
00100000
00000010
00000100
01000000
00100000
00000010
01000000
00000010
,
00100000
00000010
00100000
00000010
01000000
00000100
01000000
00000100
,
00000010
01000000
00000010
00100000
00000100
01000000
00000010
00100000
,
00000010
00000100
01000000
00100000
00000100
00100000
00000100
01000000
,
00000010
00000000
01000000
00000000
00000100
00000000
01000000
00000000
00100000
00000000
00000010
00000000
01000000
00000000
00000010
01000000
,
00000010
01000000
00000010
01000000
00000010
00000000
00000000
00000000
00000000
00000000
00000000
00000000
01000000
00000000
00000000
00000000
,
00000010
11000000
00000001
00010100
00000000
00000000
10000000
00000000
,
00000001
00000000
00010000
00010000
00000000
00000000
00000000
00000000
,
00000000
10000000
00000001
00000000
,
00010000
00000000
10000000
00000000
00000001
00000000
10000000
10000000
,
00000000
00000000
00000000
10000001
00000000
00000000
00000000
00000000
,
00010000
10000001
00000000
00000000
,
00000000
00000000
01000000
00000010
01000000
00000010
00100000
00000100
,
00100000
00000100
00100000
00000010
00100000
00000010
00100000
00000100
,
01000000
00000010
00000100
00100000
00000010
01000000
00000100
01000000
,
00000100
01000000
00000100
00000010
00000100
00000010
00100000
01000000
,
00100000
01000000
00000100
00000010
00100000
01000000
00000010
01000000
,
00000100
00100000
00000100
00100000
00000100
01000000
00100000
00000010
,
01000000
00000010
00100000
00000100
00100000
00000100
01000000
00000010
,
00100000
01000000
00100000
01000000
00000100
00000010
00000100
00000010
,
00100000
00000100
00000010
01000000
00000100
00100000
00000010
01000000
,
00000100
00100000
01000000
00000010
00100000
00000010
00100000
00000010
,
00000100
00100000
00000100
01000000
00100000
01000000
00100000
01000000
,
00000100
00000010
00000100
00000010
00100000
00000100
01000000
00000010
,
01000000
00000010
00100000
00000100
00100000
01000000
00000100
00000010
,
00100000
00000100
01000000
00000010
01000000
00000100
00100000
00000100
,
00000010
00000100
00000010
01000000
00000010
00100000
00000100
00100000
,
00000010
00100000
00000100
00100000
00000010
01000000
00000010
00100000
,
00000100
01000000
00000010
00000000
00000000
00000000
00000000
00000000
,
00000000
00000000
00000000
00000000
00000000
00000000
00000000
00000000
00000000
01000000
00000000
00000100
00000000
00000000
01000000
00000000
00100000
00000000
00000000
00100000
00000000
00000000
00000000
00000100
,
00000000
00000000
00000000
00100000
00000000
00000000
00000000
00000000
00000000
00000100
00000000
00000000
00000000
00100000
00000000
00000000
00000000
00000000
00000010
00000000
00000000
00000000
00000000
00000000
01000000
00000000
00000000
00000000
00000000
00000000
00000010
00000000
00000000
00000000
00000000
00000000
01000000
00000000
00000000
00000100
00000000
00000000
00000000
00000000
00000000
00100000
00000000
00000000
,
00000000
00000100
00000000
00100000
00000000
00000000
00000000
00000000
00000000
00000000
00000000
00000000
00000000
00000000
00000000
00000000
,
00000000
00000000
00000000
00000000
00000000
10100101
00000000
00000000
00000000
00000000
00000000
00000000
00000000
00000000
00000000
00000000
;
