#TITLE:ICE BABY;
#SUBTITLE:;
#ARTIST:보이스코;
#TITLETRANSLIT:;
#SUBTITLETRANSLIT:;
#ARTISTTRANSLIT:Voixco;
#GENRE:;
#CREDIT:locuuraa;
#LYRICSPATH:;
#MUSIC:ICE BABY.ogg;
#OFFSET:3.660;
#SAMPLESTART:11.000;
#SAMPLELENGTH:12.000;
#SELECTABLE:YES;
#BPMS:0.000=97.010;
#STOPS:;
#KEYSOUNDS:;
#BANNER:ICE BABY.png;
#BACKGROUND:ICE BABY.png;
#CDTITLE:../CDTitles/4DSS.png;
#BGCHANGES:-14.700=ICE BABY.avi=1.000=0=0=1,
229.000=ICE BABY.png=1.000=0=0=1,
99999=-nosongbg-=1.000=0=0=0
;
#NOTES:
     ds3ddx-single:
     Hard:
     Medium:
     3:
     :
00000000
00000000
00000000
00000000
,
00000000
00000000
00000000
00000000
,
00000000
10000001
00010000
10000001
,
00010000
00100000
00000100
00100000
,
00000100
00000100
00000000
00100000
,
00110100
00000000
00000000
00000000
,
00000100
00100000
00010000
00000100
,
00100000
00000000
00100000
00000000
00100100
00000000
00010000
10000000
,
00000000
00010000
00000000
00000000
,
01000010
00100100
00000000
00000000
,
00000000
00000100
00000100
01000000
,
00000010
00000010
00000010
00100000
,
00100000
00100000
00100000
00010000
,
00000001
00010000
10000000
00000000
,
00000000
00000000
00000100
00000100
00110000
00000001
00001000
10000000
,
00100000
11000001
00000000
00000000
,
01000000
00000010
00000100
00100000
,
00000100
00000100
00000000
00100000
,
00000000
00010000
00010000
00010000
,
00100000
00000100
00000010
01000000
,
01000000
00000000
00000101
00000000
00000000
00000000
00000100
00000010
,
00000000
00100000
00000100
00000100
,
00100000
00000000
00100000
00000000
00100000
00000000
00000001
00001000
,
00000000
00000001
00010000
00100000
,
00000001
00000100
00000000
00110100
,
00000000
00100001
10000100
10100001
,
00100000
00000000
00000001
00000100
10000000
00100000
00000001
00000100
,
10000000
00100000
00100000
00000000
10000101
00000000
00000000
00000000
,
00000000
00010100
00100001
00010100
,
00000001
00000100
00100000
00000001
,
00000000
00000000
00000000
00000001
,
00000100
00100000
01000000
00000010
,
00000010
00000100
00100000
00000100
,
00100000
00100000
01000000
00000010
,
00000010
00000100
00100000
00100000
,
00100000
00000000
10000101
00000000
00000000
00000000
00000000
00100100
;
#NOTES:
     ds3ddx-double:
     Club:
     Easy:
     3:
     :
0000000000000000
0000000000000000
0000000000000000
0000000000000000
,
0000000000000000
0000000000000000
0000000000000000
0000000000000000
,
0000000000000000
1000000100000000
0001000000000000
1000000100000000
,
0001000000000000
0010000000000000
0000010000000000
0010000000000000
,
0000000000100000
0000000000100000
0000000000000000
0000000001000000
,
0000000000110100
0000000000000000
0000000000000000
0000000000000000
,
0000000000000100
0000000000100000
0000000000010000
0000000000000100
,
0000000000100000
0000000000000000
0000000000100000
0000000000000000
0000000000100100
0000000000000000
0000000000010000
0000000010000000
,
0000000000000000
0000000000010000
0000000000000000
0000000000000000
,
0000000001000010
0000000000100100
0000000000000000
0000000000000000
,
0000000000000000
0000010000000000
0000010000000000
0100000000000000
,
0000001000000000
0000001000000000
0000001000000000
0010000000000000
,
0010000000000000
0010000000000000
0010000000000000
0001000000000000
,
0000000100000000
0001000000000000
1000000000000000
0000000000000000
,
0000000000000000
0000000000000000
0000010000000000
0000010000000000
0011000000000000
0000000100000000
0000100000000000
1000000000000000
,
0010000000000000
1100000100000000
0000000000000000
0000000000000000
,
0000000001000000
0000000000000010
0000000000000100
0000000000100000
,
0000000000000100
0000000000000100
0000000000000000
0000000000100000
,
0000000000000000
0001000000000000
0001000000000000
0001000000000000
,
0010000000000000
0000010000000000
0000001000000000
0100000000000000
,
0100000000000000
0000000000000000
0000010100000000
0000000000000000
0000000000000000
0000000000000000
0000010000000000
0000001000000000
,
0000000000000000
0010000000000000
0000010000000000
0000010000000000
,
0000000001000000
0000000000000000
0000000001000000
0000000000000000
0000010000000000
0000000000000000
0000000000010000
0001000000000000
,
0000000000000000
0001000000000000
0000000000010000
0000000000100000
,
0000000000000001
0000000000000100
0000000000000000
0000000000110100
,
0000000000000000
0000000000100001
0000000010000100
0000000010100001
,
0000000000100000
0000000000000000
0000000000000001
0000000000000100
0000000010000000
0000000000100000
0000000000000001
0000000000000100
,
0000000010000000
0000000000100000
0000000000100000
0000000000000000
0000000010000101
0000000000000000
0000000000000000
0000000000000000
,
0000000000000000
0001010000000000
0010000100000000
0001010000000000
,
0000000100000000
0000010000000000
0010000000000000
0000000100000000
,
0000000000000000
0000000000000000
0000000000000000
0000000000010000
,
0000000000100000
0000000000000100
0000000000000010
0000000001000000
,
0000000001000000
0000000000000100
0000000000100000
0000000000000100
,
0000000000100000
0000000000100000
0000000001000000
0000001000000000
,
0000001000000000
0000010000000000
0010000000000000
0010000000000000
,
0010000000000000
0000000000000000
1000010100000000
0000000000000000
0000000000000000
0000000000000000
0000000000000000
0010010000000000
;
#NOTES:
     ds3ddx-single:
     Easy:
     Easy:
     2:
     :
00000000
00000000
00000000
00000000
,
00000000
00000000
00000000
00000000
,
00000000
10000001
00010000
10000001
,
00000000
00100000
00000100
00100000
,
00000100
00000100
00000000
00100000
,
00000100
00000000
00000000
00000000
,
00000100
00000000
00010000
00000100
,
00000000
00100000
00000100
00010000
,
00000000
00010000
00000000
00000000
,
00000010
00100000
00000000
00000000
,
00000000
00000100
00000000
01000000
,
00000010
00000000
00000010
00100000
,
00000000
00100000
00000000
00010000
,
00000001
00010000
10000000
00000000
,
00000000
00000100
00000000
00001000
,
00000000
01000001
00000000
00000000
,
01000000
00000010
00000100
00100000
,
00000100
00000100
00000000
00100000
,
00000000
00010000
00000000
00010000
,
00000000
00000100
00000000
01000000
,
01000000
00000101
00000000
00000100
,
00000000
00100000
00000000
00000100
,
00100000
00000000
00100000
00000000
,
00000000
00000001
00000000
00100000
,
00000001
00000100
00000000
00100100
,
00000000
00000000
10000100
00000000
,
00100000
00000000
01000000
00000000
,
10000000
00000000
10000101
00000000
,
00000000
00000100
00100000
00000100
,
00000000
00000100
00100000
00000001
,
00000000
00000000
00000000
00000001
,
00000100
00100000
01000000
00000000
,
00000010
00000000
00100000
00000100
,
00000000
00100000
00000000
00000010
,
00000000
00000100
00000000
00100000
,
00100000
00000000
00000101
00000000
00000000
00000000
00000000
00100100
;
