#TITLE:I Saw You Walking In The Rain;
#SUBTITLE:;
#ARTIST:Samira;
#TITLETRANSLIT:;
#SUBTITLETRANSLIT:;
#ARTISTTRANSLIT:;
#GENRE:;
#CREDIT:locuuraa;
#LYRICSPATH:;
#MUSIC:I Saw You Walking In The Rain.ogg;
#OFFSET:0.120;
#SAMPLESTART:11.980;
#SAMPLELENGTH:12.000;
#SELECTABLE:YES;
#BPMS:0.000=109.000;
#STOPS:;
#KEYSOUNDS:;
#BANNER:I Saw You Walking In The Rain.png;
#BACKGROUND:I Saw You Walking In The Rain.png;
#CDTITLE:../CDTitles/4DSS.png;
#BGCHANGES:-14.700=I Saw You Walking In The Rain.avi=1.000=0=0=1,
229.000=I Saw You Walking In The Rain.png=1.000=0=0=1,
99999=-nosongbg-=1.000=0=0=0
;
#NOTES:
     ds3ddx-single:
     Hard:
     Medium:
     5:
     :
00000000
00000000
00000000
00100000
,
00010100
00100000
10100000
00000100
,
00010100
00000100
00000101
01000000
,
00010100
00000010
00110000
00100000
,
00000011
00000000
00100000
00010100
00000000
00000011
11000000
00000000
,
00100100
00100000
00110000
00000100
,
00010100
01000000
10000010
00000010
,
01000001
00000000
00100000
00000000
01000100
00000000
00100000
10000000
,
00000100
00000001
00100000
00000100
00010000
00000000
10000001
00000000
,
00110000
00000100
00010100
01000000
,
11000000
00000010
00000011
00100000
,
11000000
00000010
00000101
00100000
,
00010100
00100000
01100000
00000100
,
00000110
00100000
00100100
01000000
,
01000010
00000000
00000010
00000000
00100000
00000000
00000100
00000100
,
10100000
00000000
01000000
01000000
00000011
00000000
00110001
00000000
,
00000000
00000000
00000000
10100000
,
00100100
00010100
00100100
00100000
,
01000000
00000010
00000101
00110000
,
10100000
00110000
00000110
11000000
,
11000000
00000011
00100000
01100000
,
00000100
00000110
00110000
00010010
,
01010000
01000000
00010010
00000100
,
00110000
00100000
01000010
00000100
,
01000010
01000010
00000000
00010000
,
00000000
00000000
00000000
00000001
,
00000000
00000000
00000000
10000000
,
00000000
00000000
00000000
00001000
,
00000000
00000000
00000000
00100000
01000000
00000100
00010010
00000000
,
11000000
11000000
00000101
00000101
,
00110000
00010100
01010000
00010100
,
11000000
00000011
11000000
00110000
,
00000101
00000101
10010001
00100000
,
00100001
00000100
10000100
00100000
,
01001000
00000100
00001010
00000100
,
00000110
00100000
01100000
00100100
,
00100100
01000010
01000010
10000001
,
00100000
00000011
01000000
00010100
,
10100000
10100000
00010100
11000000
,
00000011
00010100
00110000
00100000
,
01000000
00000010
00000100
00100000
,
01010000
00000100
00010010
00100000
,
00000100
00100000
00100000
00100100
,
00010000
00000010
00000010
01000000
,
00000010
10000000
00000100
00100000
,
01000000
00000010
00010000
00000000
,
00100000
00000000
10000001
00000000
,
00000100
00000000
00010000
00000000
;
#NOTES:
     ds3ddx-single:
     Easy:
     Easy:
     5:
     :
00000000
00000000
00000000
00100000
,
00000100
00100000
00100000
00000100
,
00010000
00000100
00000001
01000000
,
00010000
00000010
00100000
00010000
,
00000010
00100000
00000000
01000000
,
00000100
00100000
00010000
00000100
,
00010000
01000000
00000010
00000010
,
01000000
00100000
00000100
00100000
,
00000100
00100000
00010000
10000001
,
00010000
00000100
00010000
01000000
,
01000000
00000010
00000010
00100000
,
10000000
00000010
00000001
00100000
,
00010000
00100000
01000000
00000100
,
00000010
00100000
00000100
01000000
,
00000010
00000010
00100000
00000100
,
00100000
01000000
00000001
00110000
,
00000000
00000000
00000000
00100000
,
00000100
00010000
00100000
00010000
,
01000000
00000010
00000100
00010000
,
10100000
00010000
00000110
10000000
,
10000000
00000001
00100000
01000000
,
00000100
00000010
00100000
00000010
,
01000000
01000000
00000010
00000100
,
00100000
00100000
01000010
00000100
,
01000000
00000010
00000000
00010000
,
00000000
00000000
00000000
00000001
,
00000000
00000000
00000000
10000000
,
00000000
00000000
00000000
00001000
,
00000000
00000000
01000000
00000010
,
01000000
11000000
00000100
00000101
,
00100000
00010100
01000000
00010100
,
01000000
00000010
01000000
00100000
,
00000100
00000100
10000000
00100000
,
00100000
00000100
00000100
00100000
,
01000000
00000100
00000010
00000100
,
00000110
00100000
01100000
00000100
,
00100000
00000010
01000000
00000001
,
00100000
00000010
01000000
00000100
,
00100000
00100000
00000100
01000000
,
00000010
00000100
00100000
00100000
,
01000000
00000010
00000100
00100000
,
01000000
00000100
00000010
00100000
,
00000100
00100000
00100000
00000100
,
00000000
00000010
00000010
01000000
,
00000010
10000000
00000100
00100000
,
01000000
00000010
00010000
00000000
,
00100000
00000000
10000001
00000000
,
00000100
00000000
00010000
00000000
;
