#TITLE:HyunJang;
#SUBTITLE:;
#ARTIST:金贤政;
#TITLETRANSLIT:;
#SUBTITLETRANSLIT:;
#ARTISTTRANSLIT:Kim Hyun-jung;
#GENRE:;
#CREDIT:locuuraa;
#LYRICSPATH:;
#MUSIC:HyunJang.ogg;
#OFFSET:3.600;
#SAMPLESTART:11.020;
#SAMPLELENGTH:12.000;
#SELECTABLE:YES;
#BPMS:0.000=113.010;
#STOPS:;
#KEYSOUNDS:;
#BANNER:HyunJang.png;
#BACKGROUND:HyunJang.png;
#CDTITLE:../CDTitles/4DSS.png;
#BGCHANGES:-14.700=HyunJang.avi=1.000=0=0=1,
229.000=HyunJang.png=1.000=0=0=1,
99999=-nosongbg-=1.000=0=0=0
;
#NOTES:
     ds3ddx-single:
     Hard:
     Medium:
     4:
     :
00000000
00000000
00000000
00000000
,
00000000
00000000
00000000
00000000
,
00000000
00000000
00000000
00000000
,
00000000
00000000
00000000
10000000
,
00000001
00000000
10000000
00000001
10000000
00000000
00000001
00000000
,
00000001
00000001
00000000
00000101
,
00000000
10100000
00000000
00010100
,
00110000
00000101
00000000
00000001
,
10000000
00000000
00000001
10000000
00000001
00000000
10000000
00000000
,
10000000
10000000
00000000
10100000
,
00000000
00000101
00000000
00110000
,
00010100
00000000
00000000
00100000
,
01000000
01000000
00000100
00000100
,
00100000
00000100
00000000
00000000
,
00000000
00010100
00000000
00110000
,
00100000
00110000
00100000
00010000
,
01000001
00000100
00000100
00100100
,
00100100
00100100
00100000
00100000
,
00100000
00100000
00100000
00011000
,
01000001
00000000
00000100
00000000
00000100
00000000
01000001
00000001
,
00000000
00000000
01000001
00000001
00000000
00000000
00000000
00000000
,
00100000
01000000
00100000
00000101
,
10100000
00000101
00000100
00010000
,
00010000
00010000
00000000
00010000
,
00010000
00010000
00000000
10100000
,
00000101
10100000
00100000
00110000
,
01000000
01000000
00100000
00010000
,
00010000
00010000
00000000
00010000
,
00010000
00010000
00000000
00010100
,
00100000
00000010
01000000
00000000
,
00000001
00000000
10000000
00000100
,
01000000
00000010
01000000
00000000
,
01000000
00000000
01000000
00000011
,
11000000
00010000
00000000
00000100
,
00000000
00000100
00000000
00100000
,
00100000
01000000
00000010
00000000
,
00000000
00000000
00000000
00000000
00000000
00000000
11000011
00010000
,
00000010
00000000
00000000
00010010
,
00010010
00000001
00000001
01010000
,
01010000
00000001
00000001
01010000
,
01010000
00000001
00000001
00100000
,
00000100
00000010
01000000
01000011
,
11000010
01000011
01000011
11000010
,
01000011
11000010
11000010
00000011
,
11000000
00000011
00000011
00110000
,
01000000
00000000
00100000
00000000
00100000
00000000
10100101
00010000
,
00000100
00000000
00000000
00000000
;
#NOTES:
     ds3ddx-double:
     Club:
     Easy:
     4:
     :
0000000000000000
0000000000000000
0000000000000000
0000000000000000
,
0000000000000000
0000000000000000
0000000000000000
0000000000000000
,
0000000000000000
0000000000000000
0000000000000000
0000000000000000
,
0000000000000000
0000000000000000
0000000000000000
1000000000000000
,
0000000100000000
0000000000000000
1000000000000000
0000000100000000
1000000000000000
0000000000000000
0000000100000000
0000000000000000
,
0000000100000000
0000000100000000
0000000000000000
0000000000110000
,
0000000000000000
0000000000000101
0000000000000000
0000000000010100
,
0000000000110000
0000000000000101
0000000000000000
0000000000000001
,
0000000010000000
0000000000000000
0000000000000001
0000000010000000
0000000000000001
0000000000000000
0000000010000000
0000000000000000
,
0000000010000000
0000000010000000
0000000000000000
0000000010100000
,
0000000000000000
0000000000000101
0000000000000000
0000000000110000
,
0000000000010100
0000000000000000
0000000000000000
0000000000100000
,
0000000001000000
0000000001000000
0000000000000100
0000000000000100
,
0000000000100000
0000000000000100
0000000000000000
0000000000000000
,
0000000000000000
0000000000010100
0000000000000000
0000000000110000
,
0000010000000000
0011000000000000
0010000000000000
0001000000000000
,
0100000100000000
0000010000000000
0000010000000000
0010010000000000
,
0000011000000000
0000010000100000
0000000001000000
0000000000000010
,
0000000000000100
0000000000100000
0000000000100000
0000000000011000
,
0000000001000001
0000000000000000
0000000000000100
0000000000000000
0000000000000100
0000000000000000
0000000001000001
0000000000000001
,
0000000000000000
0000000000000000
0000000001000001
0000000000000001
0000000000000000
0000000000000000
0000000000000000
0000000000000000
,
0000010000000000
0100000000000000
0010000000000000
0000010100000000
,
1010000000000000
0000010100000000
0000010000000000
0001000000000000
,
0001000000000000
0001000000000000
0000000000000000
0000000000010000
,
0000000000010000
0000000000010000
0000000000000000
0000000010100000
,
0000000000000101
0000000010100000
0000000000100000
0000000000110000
,
0000000001000000
0000000001000000
0000010000000000
0001000000000000
,
0001000000000000
0001000000000000
0000000000000000
0000000000010000
,
0000000000010000
0000000000010000
0000000000000000
0001010000000000
,
0010000000000000
0000001000000000
0100000000000000
0000000000000000
,
0000000100000000
0000000000000000
0000000000010000
0000000000000100
,
0000000001000000
0000000000000010
0000000001000000
0000000000000000
,
0000000001000000
0000000000000000
0000010000000000
0000001100000000
,
1100000000000000
0001000000000000
0000000000000000
0000010000000000
,
0000000000000000
0000010000000000
0000000000000000
0000000000100000
,
0000000000100000
0000000001000000
0000000000000010
0000000000000000
,
0000000000000000
0000000000000000
0000000000000000
0000000000000000
0000000000000000
0000000000000000
0000000011000011
0000000000010000
,
0000000000000010
0000000000000000
0000000000000000
0000000000010010
,
0000000000010010
0000000010000000
0000000000100000
0001010000000000
,
0001010000000000
0000000100000000
0000000100000000
0101000000000000
,
0101000000000000
0000000100000000
0000000100000000
0010000000000000
,
0000010000000000
0000001000000000
0100000000000000
0100001100000000
,
1100001000000000
0100001100000000
0100001100000000
1100001000000000
,
0100001100000000
1100001000000000
1100001000000000
0000001100000000
,
1100000000000000
0000001100000000
0000001100000000
0011000000000000
,
0100000000000000
0000000000000000
0010000000000000
0000000000000000
0010000000000000
0000000000000000
1010010100000000
0001000000000000
,
0000010000000000
0000000000000000
0000000000000000
0000000000000000
;
#NOTES:
     ds3ddx-single:
     Easy:
     Easy:
     3:
     :
00000000
00000000
00000000
00000000
,
00000000
00000000
00000000
00000000
,
00000000
00000000
00000000
00000000
,
00000000
00000000
00000000
10000000
,
00000000
10000000
00000000
00000001
,
00000001
00000001
00000000
00000101
,
00000000
10100000
00000000
00000100
,
00000000
00000101
00000000
00000001
,
10000000
00000000
00000001
10000000
,
10000000
10000000
00000000
00100000
,
00000000
00000101
00000000
00100000
,
00000100
00000000
00000000
00100000
,
01000000
01000000
00000100
00000100
,
00100000
00000100
00000000
00000000
,
00000000
00010100
00000000
00110000
,
00000000
00010000
00000000
00010000
,
00000001
00000000
00000100
00000000
,
00100100
00000000
00100000
00000000
,
00100000
00000000
00100000
00000000
,
01000001
00000100
00000000
01000001
,
00000000
00000001
00000000
00000000
,
00100000
00000000
00100000
00000000
,
10100000
00000000
00000100
00000000
,
00010000
00010000
00000000
00010000
,
00000000
00010000
00000000
00100000
,
00000000
10100000
00000000
00010000
,
01000000
00000000
00100000
00010000
,
00000000
00010000
00000000
00010000
,
00000000
00010000
00000000
00010100
,
00000000
00000000
01000000
00000000
,
00000001
00000000
10000000
00000000
,
01000000
00000010
01000000
00000000
,
01000000
00000000
01000000
00000000
,
11000000
00000000
00000000
00000100
,
00000000
00000100
00000000
00000000
,
00100000
01000000
00000010
00000000
,
00000000
00000000
00000000
01000010
,
00000000
00000000
00000000
00010010
,
00000000
00000001
00000000
00010000
,
00010000
00000000
00000001
00010000
,
00000000
00000001
00000001
00100000
,
00000000
00000010
01000000
00000000
,
10000010
00000000
00000011
00000000
,
01000010
00000010
01000000
00000000
,
11000000
00000011
00000000
00010000
,
01000000
00000000
00100000
10000000
,
00000100
00000000
00000000
00000000
;
