#TITLE:How Do I;
#SUBTITLE:;
#ARTIST:Baby V.O.X.;
#TITLETRANSLIT:;
#SUBTITLETRANSLIT:;
#ARTISTTRANSLIT:;
#GENRE:;
#CREDIT:locuuraa;
#LYRICSPATH:;
#MUSIC:How Do I.ogg;
#OFFSET:1.820;
#SAMPLESTART:11.020;
#SAMPLELENGTH:12.000;
#SELECTABLE:YES;
#BPMS:0.000=140.010;
#STOPS:;
#KEYSOUNDS:;
#BANNER:How Do I.png;
#BACKGROUND:How Do I.png;
#CDTITLE:../CDTitles/4DSS.png;
#BGCHANGES:-14.700=How Do I.avi=1.000=0=0=1,
229.000=How Do I.png=1.000=0=0=1,
99999=-nosongbg-=1.000=0=0=0
;
#NOTES:
     ds3ddx-single:
     Hard:
     Medium:
     6:
     :
00000000
00000000
00000000
00000000
,
00000000
00000000
00000000
00000000
,
00000000
00000000
00000000
00000000
,
00000000
00000000
00000000
00000000
,
00000000
00000000
00000000
00000000
,
00000000
00000000
00000000
00000000
,
00000000
00000000
00000000
00000000
,
00000000
00000001
00000010
11000001
,
01000000
01000010
00001000
10000000
,
00000000
00000000
00000000
01000000
,
00000100
10100001
01000000
01000000
,
10000100
10000011
11000001
00100000
,
00000010
00100000
00000100
10100101
,
00010000
10000001
00000100
00100000
,
00010100
00000010
01000000
11000011
,
01000010
01000010
00000100
10100000
,
00100101
00000100
00100000
00100000
,
00000100
00110000
00000100
00010000
,
00100100
10100001
00000100
00110000
,
00000100
10100101
00000000
00000000
,
00000000
10000101
00000000
00000000
,
10000001
00000000
00000000
00000000
,
10000001
00010000
00000000
00000000
,
00000000
11000001
00000000
00000000
,
00000000
00110000
00000000
00010100
,
00000000
00000001
00000001
00000001
,
00000001
00010000
00100100
00010000
,
00000000
10000001
00000000
01000000
,
01000010
00000000
00000000
00000000
,
00000000
00000101
00000010
00000010
,
01000010
00000000
00000000
00000000
,
00000000
00000000
00000011
00000000
00000000
00000000
11000000
00010000
,
00000000
00000001
00000000
00000000
,
00000100
00000010
00000100
00000010
,
00000000
00100000
00100000
01000000
,
01000000
00000000
10000011
00000000
00000010
00000000
01010000
10000000
,
01000000
10000010
00000001
00000000
,
00000000
00010100
00000000
10000011
,
00010000
10100001
00010000
00100000
,
00000000
11000001
01000000
00000011
,
00000010
11000011
01000000
00010010
,
00000000
11000001
00100000
00000100
,
00000100
10100001
00000000
00010100
,
00000000
01000000
00000100
00000000
,
00000000
00100000
00000100
00110000
,
00010100
00100000
00000100
00100000
,
00010000
00000100
00100000
00000100
,
00010000
00100001
10000100
00010000
,
00000000
00000010
00000000
00010100
,
00000000
10100001
00000100
00010000
,
00010000
00100001
00010100
00000001
,
00000001
00110000
00000101
00010000
,
00010000
10000001
00000000
00000010
,
00000000
01000000
00000010
00110000
,
00010100
00100000
00000100
00100000
,
00010000
00000100
00100000
00000100
,
00010000
00100001
10000100
00010000
,
00000000
00000010
00000000
00010100
,
00000000
10100001
00000100
00010000
,
00010000
00100001
00010100
00000001
,
00000001
00110000
00000101
00010000
,
00010000
10000001
00000000
00000010
,
00000000
00010100
00000000
10000011
,
00000000
00000011
11000000
10000001
,
10000001
00000100
00100000
10000101
,
00010000
00010000
00000000
00000000
,
00000000
00000000
00000000
00000000
,
00000000
00000000
00000000
00000000
,
00000000
10000011
00000000
01000000
,
00000000
00000100
00000100
00110000
,
00000100
10000011
11000001
00100000
,
00000010
00100000
00000100
10100101
,
00010000
10000001
00000100
00100000
,
00010100
00000010
01000000
11000011
,
01000010
01000010
00000100
10100000
,
00100101
00000100
00100000
00100000
,
00000100
00110000
00000100
00010000
,
00100100
10100001
00000100
00110000
,
00000100
10100000
00000000
00000000
;
#NOTES:
     ds3ddx-double:
     Club:
     Easy:
     6:
     :
0000000000000000
0000000000000000
0000000000000000
0000000000000000
,
0000000000000000
0000000000000000
0000000000000000
0000000000000000
,
0000000000000000
0000000000000000
0000000000000000
0000000000000000
,
0000000000000000
0000000000000000
0000000000000000
0000000000000000
,
0000000000000000
0000000000000000
0000000000000000
0000000000000000
,
0000000000000000
0000000000000000
0000000000000000
0000000000000000
,
0000000000000000
0000000000000000
0000000000000000
0000000000000000
,
0000000000000000
0000000000000000
0000000000000000
0000000000000000
,
0000000000000000
0000000100000000
0000001000000000
1100000100000000
,
0100000000000000
0100001000000000
0000100000000000
1000000000000000
,
0000000000000000
0000000000000000
0000000000000000
0000000001000000
,
0000000000000100
0000000010100001
0000000001000000
0000000001000000
,
0000000010000100
0000000010000011
0000000011000001
0000000000100000
,
0000000000000010
0000000000100000
0000000000000100
0000000010100101
,
0000000000010000
0000000011000000
0000010000000000
0000001000000000
,
0001010000000000
0000001000000000
0100000000000000
1100001100000000
,
0100001000000000
0100001000000000
0000010000000000
1010000000000000
,
0010010100000000
0000010000000000
0010000000000000
0000001000000000
,
0000010000000000
0000000000110000
0000000000000100
0000000000010000
,
0000000000100100
0000000010100001
0000000000000100
0000000000110000
,
0000000000000100
0000000010100101
0000000000000000
0000000000000000
,
0000000000000000
1000010100000000
0000000000000000
0000000000000000
,
1000000100000000
0000000000000000
0000000000000000
0000000000000000
,
1000000100000000
0001000000000000
0000000000000000
0000000000000000
,
0000000000000000
0000000011000001
0000000000000000
0000000000000000
,
0000000000000000
0000000000110000
0000000000000000
0000000000010100
,
0000000000000000
0000000000000001
0000000000000001
0000000000000001
,
0000000000000001
0000000000010000
0000000000100100
0000000000010000
,
0000000000000000
0000000010000001
0000000000000000
0000000001000000
,
0000001001000000
0000000000000000
0000000000000000
0000000000000000
,
0000000000000000
0000010100000000
0000001000000000
0000001000000000
,
0100001000000000
0000000000000000
0000000000000000
0000000000000000
,
0000000000000000
0000000000000000
0000000000110000
0000000000000000
0000000000000000
0000000000000000
0001010000000000
0000000100000000
,
0000000000000000
0000010000000000
0000000000000000
0000000000000000
,
0000000001000000
0000000000100000
0000000000000100
0000000000000010
,
0000000000000000
0000000000100000
0000000000100000
0000000001000000
,
0000000001000000
0000000000000000
0000000010000011
0000000000000000
0000000000000010
0000000000000000
0000000001010000
0000000010000000
,
0000000001000000
0000000010000010
0000000000000001
0000000000000000
,
0000000000000000
0001010000000000
0000000000000000
1000001100000000
,
0001000000000000
1010000100000000
0001000000000000
0010000000000000
,
0000000000000000
1100000100000000
0100000000000000
0100001100000000
,
0000000000000000
1100001100000000
0100000000000000
0000011000000000
,
0000000000000000
0000000001110000
0000000000000100
0000000000000100
,
0000000000100000
0000000010100001
0000000000000000
0000000000010100
,
0000000000000000
0000000001000000
0000000000000100
0000000000000000
,
0000000000000000
0010000000000000
0000010000000000
0011000000000000
,
0001010000000000
0010000000000000
0000010000000000
0010000000000000
,
0001000000000000
0000010000000000
0010000000000000
0000010000000000
,
0001000000000000
0010000100000000
1000010000000000
0001000000000000
,
0000000000000000
0000000000000010
0000000000000000
0000000000010100
,
0000000000000000
0000000010100001
0000000000000100
0000000000010000
,
0000000000010000
0000000000100001
0000000000010100
0000000000000001
,
0000000000000001
0000000000110000
0000000000000101
0000000000010000
,
0000000000010000
0000000010000001
0000000000000000
0000010000000000
,
0000000000000000
0100000000000000
0000001000000000
0011000000000000
,
0001010000000000
0010000000000000
0000010000000000
0010000000000000
,
0001000000000000
0000010000000000
0010000000000000
0000010000000000
,
0001000000000000
0010000100000000
1000010000000000
0001000000000000
,
0000000000000000
0000000000100000
0000000000000000
0000000000010100
,
0000000000000000
0000000010100001
0000000000000100
0000000000010000
,
0000000000010000
0000000000100001
0000000000010100
0000000000000001
,
0000000000000001
0000000000110000
0000000000000101
0000000000010000
,
0000000000010000
0000000010000001
0000000000000000
0000010000000000
,
0000000000000000
0001010000000000
0000000000000000
1000001100000000
,
0000000000000000
0000001100000000
1100000000000000
1000000100000000
,
1000000100000000
0000010000000000
0010000000000000
1000010100000000
,
0001000000000000
0001000000000000
0000000000000000
0000000000000000
,
0000000000000000
0000000000000000
0000000000000000
0000000000000000
,
0000000000000000
0000000000000000
0000000000000000
0000000000000000
,
0000000000000000
0000000010000011
0000000000000000
0000000001000000
,
0000000000000000
0000000000000100
0000000000000100
0000000000110000
,
0000000000000100
0000000010000011
0000000011000001
0000000000100000
,
0000000000000010
0000000000100000
0000000000000100
0000000010100101
,
0000000000010000
0000000010000001
0000000000000100
0000000001000000
,
0001010000000000
0000001000000000
0100000000000000
1100001100000000
,
0100001000000000
0100001000000000
0000010000000000
1010000000000000
,
0010010100000000
0000010000000000
0010000000000000
0000001000000000
,
0000000000100000
0001010000000000
0000000000100000
0000000000010000
,
0000000000100100
0000000010100001
0000000000000100
0000000000110000
,
0000010000000000
0001010000000000
0000000000000000
0000000000000000
;
#NOTES:
     ds3ddx-single:
     Easy:
     Easy:
     5:
     :
00000000
00000000
00000000
00000000
,
00000000
00000000
00000000
00000000
,
00000000
00000000
00000000
00000000
,
00000000
00000000
00000000
00000000
,
00000000
00000000
00000000
00000000
,
00000000
00000000
00000000
00000000
,
00000000
00000000
00000000
00000000
,
00000000
00000000
00000000
00000000
,
00000000
00000001
00000000
10000000
,
00000000
01000010
00000000
10000000
,
00000000
00000000
00000000
01000000
,
00000100
00000000
00000000
01000000
,
00000100
00000000
01000000
00000000
,
00000010
00100000
00000000
00000100
,
00000000
10000000
00000000
00100000
,
00000000
00000010
00000000
01000000
,
00000000
00000010
00000000
10100000
,
00000000
00000100
00000000
00100000
,
00000000
00010000
00000000
00010000
,
00000000
00100000
00000000
00100000
,
00000000
00000101
00000000
00000000
,
00000000
00000101
00000000
00000000
,
10000001
00000000
00000000
00000000
,
10000001
00000000
00000000
00000000
,
00000000
01000000
00000000
00000000
,
00000000
00100000
00000000
00000100
,
00000000
00000001
10000000
00000001
,
10000000
00000000
00100000
00000000
,
00000000
00000001
00000000
00000000
,
01000010
00000000
00000000
00000000
,
00000000
00000100
00000000
00000000
,
01000000
00000000
00000000
00000000
,
00000000
00000001
00000000
10000000
,
00000000
00000001
00000000
00000000
,
00000100
01000000
00000100
01000000
,
00000000
00100000
00000000
00000010
,
01000000
00000000
00000010
00000000
,
01000000
00000000
00010000
00000000
,
00000000
00000100
00000000
10000000
,
00000000
00100000
00000000
00100000
,
00000000
01000000
00000010
00000000
,
00100000
00000000
01000000
00000010
,
00000000
00000001
00100000
00000000
,
00000100
00000000
00000000
00010100
,
00000000
01000000
00000100
00000000
,
00000000
00100000
00000000
00100000
,
00000000
00100000
00000000
00100000
,
00000000
00000100
00000000
00000000
,
00100000
00000000
00000100
00000000
,
00000000
00000010
00000000
00010000
,
00000000
10100000
00000000
00010000
,
00000000
00100000
00000100
00000000
,
00000000
00010000
00000000
00010000
,
00000000
10000001
00000000
00000010
,
00000000
01000000
00000010
00000000
,
00010100
00000000
00000100
00100000
,
00000000
00000000
00100010
00000000
,
00010000
00000000
10000100
00000000
,
00000000
01000010
00000000
00010100
,
00000000
00100000
00000000
00010000
,
00000000
00100000
00000100
00000000
,
00000001
00100000
00000000
00010000
,
00000000
10000000
00000000
00000010
,
00000000
00010100
00000000
10000000
,
00000000
00000011
00000000
00000000
,
10000001
00000000
00100000
00000100
,
00000000
00010000
00000000
00000000
,
00000000
00000000
00000000
00000000
,
00000000
00000000
00000000
00000000
,
00000000
10000011
00000000
01000000
,
00000000
00000100
00000000
00100000
,
00000000
00000010
00000000
00100000
,
00000010
00100000
00000000
10000100
,
00000000
00000000
00000100
00100000
,
00000000
00000010
01000000
00000000
,
01000010
00000000
00000100
00000000
,
00100000
00000100
00000000
00100000
,
00000100
00000000
00000100
00010000
,
00000000
00100000
00000100
00100000
,
00000100
10100000
00000000
00000000
;
