#TITLE:HipHop [街舞主体];
#SUBTITLE:~ Me Against The World;
#ARTIST:2Pac;
#TITLETRANSLIT:HipHop [Jiēwǔ zhǔtǐ];
#SUBTITLETRANSLIT:;
#ARTISTTRANSLIT:Gao Yaotai;
#GENRE:;
#CREDIT:locuuraa;
#LYRICSPATH:;
#MUSIC:HipHop [街舞主体].ogg;
#OFFSET:0.080;
#SAMPLESTART:12.020;
#SAMPLELENGTH:12.000;
#SELECTABLE:YES;
#BPMS:0.000=137.800;
#STOPS:;
#KEYSOUNDS:;
#BANNER:HipHop [街舞主体].png;
#BACKGROUND:HipHop [街舞主体].png;
#CDTITLE:../CDTitles/4DSS.png;
#BGCHANGES:-14.700=HipHop [街舞主体].avi=1.000=0=0=1,
229.000=HipHop [街舞主体].png=1.000=0=0=1,
99999=-nosongbg-=1.000=0=0=0
;
#NOTES:
     ds3ddx-single:
     Hard:
     Medium:
     3:
     :
00000000
00000000
00000000
00000000
,
00000000
00000000
00000000
00000000
,
00000000
00000000
00000000
00000000
,
00000000
00000000
00000000
00000000
,
00000000
00000000
00000000
00000000
,
00000000
00000000
00000000
00000000
,
00000000
00100000
00000000
00000000
,
00000100
00000100
00000000
00000001
00100000
00000000
00000100
00000000
,
00000000
00000000
00000000
00000000
00100000
00100000
00000000
10000000
,
00000000
00000100
00000000
00000000
,
00100000
00100000
00000000
10000000
00000100
00000000
00100000
00000000
,
00000000
00000000
00000000
00000000
00000100
00000100
00000000
00000001
,
00000000
01000000
00000000
00000000
,
00000010
00000010
00000000
00000001
10000000
00000000
00000010
00000000
,
00000000
00000000
00000000
00000000
01000000
00000010
00000000
01000000
,
00000000
00000010
00000000
00000000
,
01000000
01000000
10000000
00000000
00000001
00000000
01000000
00000000
,
00000000
00000000
00000000
00000000
00000010
01000000
00000000
00000010
,
00000000
00000000
00100000
00000000
00000000
01000000
00000000
00000000
,
00100000
00000000
00000000
00000100
00000000
00000000
01000000
00000000
,
00000000
00100000
00000000
00000000
01000000
00000000
00000000
00000010
,
00000000
00000000
00000100
00000000
00000000
00000101
00000000
00000000
,
00000100
00000000
00000000
00000011
00000000
00000000
00100000
00000000
,
00000000
11000000
00000000
00000000
01000000
00000000
00000000
00000011
,
00000000
00000000
01000000
00000000
00000000
11000000
00000000
00000000
,
00100000
00000000
00000000
00010100
00000000
00000000
00000010
00000000
,
00000000
00000011
00000000
00000000
00000100
00000000
00000000
10100000
,
00000000
00000000
00100000
00000000
00000000
00000100
00000000
00000000
,
00000100
00000000
00000000
00100000
00000000
00000000
01000000
00000000
,
00000000
00000010
00000000
00000000
00000100
00000000
00000000
00100000
,
00000000
00000000
10000000
00000000
00000000
10000000
00000000
00000000
,
00100000
00000000
00000000
00100000
00000000
00000000
00000001
00000000
,
00000000
00000001
00000000
00000000
00000100
00000000
00000000
00000100
,
00000000
00000000
00000010
00000000
00000000
00000011
00000000
00000000
,
01000000
00000000
00000000
11000000
00000000
00000000
00000010
00000000
,
00000000
10100000
00000000
00000000
00000100
00000000
00000000
00000101
,
00000000
00000000
01000000
00000000
00000000
00110000
00000000
00000000
,
00000100
00000000
00000000
00010100
00000000
00000000
00000010
00000000
,
00000000
00010010
00000000
00000000
01000000
00000000
00000000
00110000
,
00000000
00000000
00000100
00000000
00000000
00100000
00000000
00000000
,
00000100
00000000
00000000
01000000
00000000
00000000
00000100
00000000
,
00000000
00000100
00000000
00000000
01000000
00000000
00000000
00000010
,
00000000
00000000
00000000
00000000
,
01000000
00000100
00000000
00100000
00000000
00000000
00000100
00000000
,
00000000
00000101
00000000
00000000
00100000
00000010
00000000
00100000
,
00000000
00000000
01000000
00000000
00000000
11000000
00000000
00000000
,
00000100
00000100
00000000
01000000
00000000
00000000
00000100
00000000
,
00000000
00000010
00000000
00000000
11000000
00000000
00000000
00000011
,
00000000
00000000
00100000
00000000
00000000
00010100
00000000
00000000
,
00000100
00000100
00000000
01000000
00000000
00000000
00100000
00000000
,
00000000
11000000
00000000
00000000
00100000
00100000
00000000
01010000
,
00000000
00000000
00000010
00000000
00000000
00000011
00000000
00000000
,
01000000
00000000
00000000
00000010
00000000
00000000
00100000
00000000
,
00000000
01000000
00000000
00000000
00000010
00000000
00000000
00000001
;
#NOTES:
     ds3ddx-double:
     Club:
     Easy:
     3:
     :
0000000000000000
0000000000000000
0000000000000000
0000000000000000
,
0000000000000000
0000000000000000
0000000000000000
0000000000000000
,
0000000000000000
0000000000000000
0000000000000000
0000000000000000
,
0000000000000000
0000000000000000
0000000000000000
0000000000000000
,
0000000000000000
0000000000000000
0000000000000000
0000000000000000
,
0000000000000000
0000000000000000
0000000000000000
0000000000000000
,
0000000000000000
0010000000000000
0000000000000000
0000000000000000
,
0000010000000000
0000010000000000
0000000000000000
0000000100000000
0010000000000000
0000000000000000
0000010000000000
0000000000000000
,
0000000000000000
0000000000000000
0000000000000000
0000000000000000
0010000000000000
0010000000000000
0000000000000000
1000000000000000
,
0000000000000000
0000010000000000
0000000000000000
0000000000000000
,
0010000000000000
0010000000000000
0000000000000000
1000000000000000
0000010000000000
0000000000000000
0010000000000000
0000000000000000
,
0000000000000000
0000000000000000
0000000000000000
0000000000000000
0000010000000000
0000010000000000
0000000000000000
0000000100000000
,
0000000000000000
0000001000000000
0000000000000000
0000000000000000
,
0000000001000000
0000000001000000
0000000000000000
0000000010000000
0000000000000001
0000000000000000
0000000000000010
0000000000000000
,
0000000000000000
0000000000000000
0000000000000000
0000000000000000
0000000001000000
0000000000000010
0000000000000000
0000000001000000
,
0000000000000000
0000000000000010
0000000000000000
0000000000000000
,
0000000001000000
0000000001000000
0000000000000001
0000000000000000
0000000010000000
0000000000000000
0000000001000000
0000000000000000
,
0000000000000000
0000000000000000
0000000000000000
0000000000000000
0000001000000000
0100000000000000
0000000000000000
0000001000000000
,
0000000000000000
0000000000000000
0010000000000000
0000000000000000
0000000000000000
0100000000000000
0000000000000000
0000000000000000
,
0010000000000000
0000000000000000
0000000000000000
0000010000000000
0000000000000000
0000000000000000
0100000000000000
0000000000000000
,
0000000000000000
0010000000000000
0000000000000000
0000000000000000
0100000000000000
0000000000000000
0000000000000000
0000001000000000
,
0000000000000000
0000000000000000
0000010000000000
0000000000000000
0000000000000000
0000010100000000
0000000000000000
0000000000000000
,
0000010000000000
0000000000000000
0000000000000000
0000001100000000
0000000000000000
0000000000000000
0000000000100000
0000000000000000
,
0000000000000000
0000000011000000
0000000000000000
0000000000000000
0000000001000000
0000000000000000
0000000000000000
0000001000000000
,
0000000000000000
0000000000000000
0000000001000000
0000000000000000
0000000000000000
0000000011000000
0000000000000000
0000000000000000
,
0000000000100000
0000000000000000
0000000000000000
0000000000010100
0000000000000000
0000000000000000
0000000000000010
0000000000000000
,
0000000000000000
0000000000000011
0000000000000000
0000000000000000
0000000000000100
0000000000000000
0000000000000000
0000000000100000
,
0000000000000000
0000000000000000
0000000000100000
0000000000000000
0000000000000000
0000000000000100
0000000000000000
0000000000000000
,
0000000000000100
0000000000000000
0000000000000000
0000000000100000
0000000000000000
0000000000000000
0000000001000000
0000000000000000
,
0000000000000000
0000001000000000
0000000000000000
0000000000000000
0000010000000000
0000000000000000
0000000000000000
0010000000000000
,
0000000000000000
0000000000000000
1000000000000000
0000000000000000
0000000000000000
1000000000000000
0000000000000000
0000000000000000
,
0010000000000000
0000000000000000
0000000000000000
0010000000000000
0000000000000000
0000000000000000
0000000100000000
0000000000000000
,
0000000000000000
0000000100000000
0000000000000000
0000000000000000
0000010000000000
0000000000000000
0000000000000000
0000010000000000
,
0000000000000000
0000000000000000
0000001000000000
0000000000000000
0000000000000000
0000001100000000
0000000000000000
0000000000000000
,
0100000000000000
0000000000000000
0000000000000000
1100000000000000
0000000000000000
0000000000000000
0000001000000000
0000000000000000
,
0000000000000000
1010000000000000
0000000000000000
0000000000000000
0000000000100000
0000000000000000
0000000000000000
0000000010100000
,
0000000000000000
0000000000000000
0000000001000000
0000000000000000
0000000000000000
0000000000110000
0000000000000000
0000000000000000
,
0000000000000100
0000000000000000
0000000000000000
0000000000010100
0000000000000000
0000000000000000
0000000000000010
0000000000000000
,
0000000000000000
0000000000010010
0000000000000000
0000000000000000
0000000001000000
0000000000000000
0000000000000000
0000000000110000
,
0000000000000000
0000000000000000
0000000000100000
0000000000000000
0000000000000000
0000001000000000
0000000000000000
0000000000000000
,
0000010000000000
0000000000000000
0000000000000000
0100000000000000
0000000000000000
0000000000000000
0000010000000000
0000000000000000
,
0000000000000000
0000010000000000
0000000000000000
0000000000000000
0100000000000000
0000000000000000
0000000000000000
0000001000000000
,
0000000000000000
0000000000000000
0000000000000000
0000000000000000
,
0100000000000000
0000010000000000
0000000000000000
0010000000000000
0000000000000000
0000000000000000
0000010000000000
0000000000000000
,
0000000000000000
0000010100000000
0000000000000000
0000000000000000
0000001000000000
0000001000000000
0000000000000000
0000000001000000
,
0000000000000000
0000000000000000
0000000001000000
0000000000000000
0000000000000000
0000000011000000
0000000000000000
0000000000000000
,
0000000000000100
0000000000000100
0000000000000000
0000000001000000
0000000000000000
0000000000000000
0000000000000100
0000000000000000
,
0000000000000000
0000000000000010
0000000000000000
0000000000000000
0000000011000000
0000000000000000
0000000000000000
0000001000000000
,
0000000000000000
0000000000000000
0010000000000000
0000000000000000
0000000000000000
0001010000000000
0000000000000000
0000000000000000
,
0000010000000000
0000010000000000
0000000000000000
0100000000000000
0000000000000000
0000000000000000
0010000000000000
0000000000000000
,
0000000000000000
0000001100000000
0000000000000000
0000000000000000
0010000000000000
0010000000000000
0000000000000000
0101000000000000
,
0000000000000000
0000000000000000
0000001000000000
0000000000000000
0000000000000000
0000001100000000
0000000000000000
0000000000000000
,
0100000000000000
0000000000000000
0000000000000000
0000001000000000
0000000000000000
0000000000000000
0000000000100000
0000000000000000
,
0000000000000000
0000000001000000
0000000000000000
0000000000000000
0000001000000000
0000000000000000
0000000000000000
0000100000000000
;
