#TITLE:Hey Oh;
#SUBTITLE:;
#ARTIST:神话;
#TITLETRANSLIT:;
#SUBTITLETRANSLIT:;
#ARTISTTRANSLIT:myth;
#GENRE:;
#CREDIT:locuuraa;
#LYRICSPATH:;
#MUSIC:Hey Oh.ogg;
#OFFSET:2.000;
#SAMPLESTART:11.620;
#SAMPLELENGTH:12.000;
#SELECTABLE:YES;
#BPMS:0.000=100.010;
#STOPS:;
#KEYSOUNDS:;
#BANNER:Hey Oh.png;
#BACKGROUND:Hey Oh.png;
#CDTITLE:../CDTitles/4DSS.png;
#BGCHANGES:-14.700=Hey Oh.avi=1.000=0=0=1,
229.000=Hey Oh.png=1.000=0=0=1,
99999=-nosongbg-=1.000=0=0=0
;
#NOTES:
     ds3ddx-single:
     Hard:
     Medium:
     6:
     :
00000000
00000000
00000000
00000000
,
00000000
00000000
00000000
00000000
,
00000000
00000000
00000000
00000000
,
00000000
00000000
00000000
00000000
,
00000000
00000000
00000000
00000000
00000000
00000000
00000000
00100100
,
00000000
00000110
00000000
00100100
00000000
01100000
00000000
00100000
,
00000000
00000010
00000000
00000010
00000000
00000100
00000000
01000000
,
00000000
00100000
00000000
00100000
00000000
01000000
00000000
00000100
,
00000000
00000010
00000000
00000100
00000000
00000010
00000000
10000001
,
00000000
00000000
00000000
00000000
,
00000000
00000000
00000000
00000000
,
00000000
00000000
00000000
00000000
,
00000000
00000000
00000000
00010000
00000000
00010000
00000000
10000001
,
00000000
10000001
00000000
00100000
10000000
00000100
00000000
10000001
,
00000000
10000001
00000000
00100000
00000001
00000100
00000000
00010000
,
00001000
10000001
00000000
00100000
00000100
00010000
00000000
00100000
,
00000000
00000100
00000000
00100000
00000000
00000100
00000000
01000000
,
00000000
00000010
00000000
00100000
00000000
00100000
00000000
00000100
,
00000000
00000100
00000000
01000000
00000001
00000010
00000000
00100000
,
00000000
00000100
00000000
01000000
00000000
01000000
00000000
00000010
,
00000000
00000010
00000000
00100000
00000001
00000100
00000000
00011000
,
00000000
00000000
00000000
00000000
00000000
00000000
00000000
00100000
,
00000000
00000100
00000000
00100000
01000000
00100000
00000100
00000001
,
00000000
00100000
00000000
00000100
00000010
00000100
00100000
10000000
,
00000000
00000100
00000000
00100000
00000000
00100000
00000000
01000000
,
00000000
00000010
00000000
00000000
00000010
00000000
10000000
00000000
10000000
00000000
10000000
00000000
10000000
00000000
10000000
00000000
,
00000000
00000010
00000000
00000010
00000000
00100000
01000000
00100000
,
00000000
01000000
00000000
01000000
00000000
00100000
01000000
00100000
,
00000000
00000100
00000000
00000100
00000000
00100000
00000000
00100000
,
00000000
00000010
00000000
00000000
00000001
00000001
00000001
00000001
,
00000000
00000100
00000000
00000010
00000000
00100000
00000000
00100000
,
00000000
01000000
00000000
00100000
00000000
00000100
00000000
00100000
,
00000000
00000100
00000000
00100000
00000000
00000100
00000000
00100000
,
00000000
00000100
00000000
00100000
10000000
00000100
00000001
00001000
,
00000000
01000000
00000000
00000010
00000000
01000000
00000000
00000010
,
00000000
01000000
00000000
00000010
00001000
01000000
00001000
10000001
,
00000000
00000000
00000000
00000000
00000000
00100000
00000000
00000101
,
00000000
00000000
00000000
10000000
10000000
10000000
10000000
10000000
,
00000000
00000100
00000000
00100000
01000000
00100000
00000100
00000001
,
00000000
00100000
00000000
00000100
00000010
00000100
00100000
10000000
,
00000000
00000100
00000000
00100000
00000000
00100000
00000000
01000000
,
00000000
01000000
00000000
00000000
10000000
10000000
10000000
10000000
,
00000000
00000000
00000000
00000011
00000000
00000011
00000000
00000000
,
00000000
00000000
00000000
01000000
00000010
01000000
00000000
00000000
,
00000000
00000000
00000000
00100000
00000000
00100000
00000000
00000000
,
00000000
00000000
00000000
01000000
00010000
00100000
10000000
00000100
;
#NOTES:
     ds3ddx-double:
     Club:
     Easy:
     1:
     :
0000000000000000
0000000000000000
0000000000000000
0000000000000000
,
0000000000000000
0000000000000000
0000000000000000
0000000000000000
,
0000000000000000
0000000000000000
0000000000000000
0000000000000000
,
0000000000000000
0000000000000000
0000000000000000
0000000000000000
,
0000000000000000
0000000000000000
0000000000000000
0010010000000000
0000000000000000
0000011000000000
0000000000000000
0000001001000000
,
0000000000000000
0000000001100000
0000000000000000
0000000000100000
0000000000000000
0000001000000000
0000000000000000
0000001000000000
,
0000000000000000
0000010000000000
0000000000000000
0000000001000000
0000000000000000
0000000000100000
0000000000000000
0000000000100000
,
0000000000000000
0000000001000000
0000000000000000
0000010000000000
0000000000000000
0000001000000000
0000000000000000
0000010000000000
,
0000000000000000
0000001000000000
0000000000000000
1000000100000000
0000000000000000
0000000000000000
0000000000000000
0000000000000000
,
0000000000000000
0000000000000000
0000000000000000
0000000000000000
,
0000000000000000
0000000000000000
0000000000000000
0000000000000000
,
0000000000000000
0000000000000000
0000000000000000
0000000000000000
0000000000000000
0000000000000000
0000000000000000
0001000000000000
,
0000000000000000
0001000000000000
0000000000000000
1000000100000000
0000000000000000
1000000100000000
0000000000000000
0010000000000000
,
1000000000000000
0000010000000000
0000000000000000
1000000100000000
0000000000000000
1000000100000000
0000000000000000
0010000000000000
,
0000000100000000
0000010000000000
0000000000000000
0001000000000000
0000100000000000
1000000100000000
0000000000000000
0010000000000000
,
0000010000000000
0000000100000000
0000000000000000
0000000000100000
0000000000000000
0000000000000100
0000000000000000
0000000000100000
,
0000000000000000
0000000000000100
0000000000000000
0000000001000000
0000000000000000
0000000000000010
0000000000000000
0000000000100000
,
0000000000000000
0000000000100000
0000000000000000
0000000000000100
0000000000000000
0000000000000100
0000000000000000
0000000001000000
,
0000000000000001
0000000000000010
0000000000000000
0000000000100000
0000000000000000
0000010000000000
0000000000000000
0100000000000000
,
0000000000000000
0100000000000000
0000000000000000
0000001000000000
0000000000000000
0000001000000000
0000000000000000
0010000000000000
,
0000000100000000
0000010000000000
0000000000000000
0001100000000000
0000000000000000
0000000000000000
0000000000000000
0000000000000000
,
0000000000000000
0000000000000000
0000000000000000
0000000000100000
0000000000000000
0000000000000100
0000000000000000
0000000000100000
,
0000000001000000
0000000000100000
0000000000000100
0000000000000001
0000000000000000
0000000000100000
0000000000000000
0000000000000100
,
0000000000000010
0000000000000100
0000000000100000
0000000010000000
0000000000000000
0000000000000100
0000000000000000
0000000000100000
,
0000000000000000
0000000000000000
0000000000100000
0000000000000000
0000000000000000
0000000000000000
0000000001000000
0000000000000000
0000000000000000
0000001000000000
0000000000000000
0000000000000000
0000001000000000
0000000000000000
0000000100000000
0000000000000000
,
0000000100000000
0000000100000000
0000000100000000
0000000100000000
0000000000000000
0000001000000000
0000000000000000
0000001000000000
,
0000000000000000
0000000000100000
0000000001000000
0000000000100000
0000000000000000
0000000001000000
0000000000000000
0000000001000000
,
0000000000000000
0000000000100000
0000000001000000
0000000000100000
0000000000000000
0000010000000000
0000000000000000
0000010000000000
,
0000000000000000
0010000000000000
0000000000000000
0010000000000000
0000000000000000
0000001000000000
0000000000000000
0000000000000000
,
0000000100000000
0000000100000000
0000000100000000
0000000100000000
0000000000000000
0000010000000000
0000000000000000
0000001000000000
,
0000000000000000
0000000000100000
0000000000000000
0000000000100000
0000000000000000
0000000001000000
0000000000000000
0000000000100000
,
0000000000000000
0000000000000100
0000000000000000
0000000000100000
0000000000000000
0000000000000100
0000000000000000
0000000000100000
,
0000000000000000
0000000000000100
0000000000000000
0000000000100000
0000000000000000
0000000000000100
0000000000000000
0000000000100000
,
0000000010000000
0000000000000100
0000000000000001
0000000000001000
0000000000000000
0000000001000000
0000000000000000
0000001000000000
,
0000000000000000
0100000000000000
0000000000000000
0000001000000000
0000000000000000
0100000000000000
0000000000000000
0000001000000000
,
0000100000000000
0100000000000000
0000100000000000
1000000100000000
0000000000000000
0000000000000000
0000000000000000
0000000000000000
,
0000000000000000
0010000000000000
0000000000000000
0000010100000000
0000000000000000
0000000000000000
0000000000000000
1000000000000000
,
1000000000000000
1000000000000000
1000000000000000
1000000000000000
0000000000000000
0000010000000000
0000000000000000
0010000000000000
,
0100000000000000
0010000000000000
0000010000000000
0000000100000000
0000000000000000
0010000000000000
0000000000000000
0000010000000000
,
0000001000000000
0000010000000000
0010000000000000
1000000000000000
0000000000000000
0000010000000000
0000000000000000
0010000000000000
,
0000000000000000
0010000000000000
0000000000000000
0100000000000000
0000000000000000
0100000000000000
0000000000000000
0000000000000000
,
1000000000000000
1000000000000000
1000000000000000
1000000000000000
0000000000000000
0000000000000000
0000000000000000
0000001100000000
,
0000000000000000
0000001100000000
0000000000000000
0000000000000000
0000000000000000
0000000000000000
0000000000000000
0000000001000000
,
0000000000100000
0000000001000000
0000000000000000
0000000000000000
0000000000000000
0000000000000000
0000000000000000
0000000000000100
,
0000000000000000
0000000000000100
0000000000000000
0000000000000000
0000000000000000
0000000000000000
0000000000000000
0000000001000000
,
0000000000010000
0000000000100000
0000000010000000
0000000000000100
0000000000000000
0000000000000000
0000000000000000
0000000000000000
;
