#TITLE:HOW ARE YOU;
#SUBTITLE:;
#ARTIST:潘玮柏;
#TITLETRANSLIT:;
#SUBTITLETRANSLIT:;
#ARTISTTRANSLIT:Will Pan;
#GENRE:;
#CREDIT:locuuraa;
#LYRICSPATH:;
#MUSIC:HOW ARE YOU.ogg;
#OFFSET:2.020;
#SAMPLESTART:11.580;
#SAMPLELENGTH:12.000;
#SELECTABLE:YES;
#BPMS:0.000=110.020;
#STOPS:;
#KEYSOUNDS:;
#BANNER:HOW ARE YOU.png;
#BACKGROUND:HOW ARE YOU.png;
#CDTITLE:../CDTitles/4DSS.png;
#BGCHANGES:-14.700=HOW ARE YOU.avi=1.000=0=0=1,
229.000=HOW ARE YOU.png=1.000=0=0=1,
99999=-nosongbg-=1.000=0=0=0
;
#NOTES:
     ds3ddx-single:
     Hard:
     Medium:
     4:
     :
00000000
00000000
00000000
00000000
,
10000000
00010000
00000001
00110000
,
00000000
00000000
00000000
00000101
,
00000000
00000000
00000000
01010000
,
00000000
00010010
00000000
00100001
,
00000000
00000001
10000000
00010100
,
00000000
10100000
00000000
00000011
,
00000000
11000000
00000000
10100000
,
00000000
00000000
00000101
00000000
00000000
00000000
00110000
10000000
,
00000000
00000000
00000000
00100000
00000100
01010000
00000010
00000000
,
00000010
00100000
00110000
01000000
,
10100000
00000100
00000011
00000100
,
00110000
00000000
01000000
00000000
00010100
00000000
00110000
00000001
,
00000010
00000000
00100000
00000100
00010010
00000000
00100000
00000000
,
10100000
00000100
00000101
01000000
,
10100000
00000010
00000101
01000000
,
01000001
00000000
00000010
00000000
00010010
00000001
00100000
00000000
,
00000101
00000000
00000101
00000000
01000010
10000001
00100000
00000000
,
00110000
00000100
00000101
00100000
,
01010000
00000100
00000011
00000100
,
10100000
01000000
00000101
00000100
,
00010100
00000000
00100000
00100000
10100000
00000000
00000100
00000000
,
11000000
00100000
00000101
00100000
,
00110000
00000100
10000010
00100000
,
11000000
00000010
01000001
00000100
,
00100001
00000000
00000100
00000100
00000101
00000000
01000000
00000000
,
00100000
00000100
00000010
00100000
,
00100000
00000100
01000000
00000100
,
00100000
00100000
01000000
00000010
,
00000010
00000000
00000100
00000000
01000000
01000000
11000000
00000000
,
00100000
00000100
00000010
00100000
,
01000000
00000100
00000010
00000010
,
00000010
00100000
00100000
00000010
,
00000100
00000000
00000010
00000010
00000011
00000000
10110000
00000000
,
00010101
00000100
10000100
00000010
,
00110000
01000000
00010100
00000100
,
11000000
00100000
00010100
00000100
,
00110000
00000010
00000011
01000000
,
11000000
00000100
01010000
00100000
,
00010010
01000000
00000011
00000100
,
11000000
00000010
00000101
01000000
,
10100000
00100001
10000100
10000001
,
00000000
00000000
00000000
10000000
00010000
00000001
10100000
00000000
,
00000000
00000101
00000000
00010100
,
00000000
00110000
00000000
00000011
,
00000000
11000000
00000000
00110000
,
00000000
00000000
00000010
00000000
00000010
01000000
00000100
00000000
,
10100000
00000010
00110000
00000100
,
10000010
00100000
01000001
00000100
,
00000101
00100000
10100000
00000100
,
00100000
00000010
01000000
00000101
,
00000000
00000000
00000000
00000000
00000000
00000000
00110000
10000000
,
00000000
00000000
00000000
00000000
00000000
00010010
00000000
00000000
;
#NOTES:
     ds3ddx-double:
     Club:
     Easy:
     5:
     :
0000000000000000
0000000000000000
0000000000000000
0000000000000000
,
1000000000000000
0001000000000000
0000000100000000
1000010000000000
,
0000000000000000
0000000000000000
0000000000000000
0000010100000000
,
0000000000000000
0000000000000000
0000000000000000
0000000010100000
,
0000000000000000
0000000011000000
0000000000000000
0000000010000100
,
0000000000000000
0000000000000001
0000000010000000
0000000000010100
,
0000000000000000
0000000010100000
0000000000000000
0000000011000000
,
0000000000000000
0000001000000000
0000000000000000
1010000000000000
,
0000000000000000
0000000000000000
0000010100000000
0000000000000000
0000000000000000
0000000000000000
0011000000000000
1000000000000000
,
0000000000000000
0000000000000000
0000000000000000
0010000000000000
0000010000000000
0101000000000000
0000001000000000
0000000000000000
,
0000000001000000
0000000000100000
0000000010100000
0000000000000010
,
0000000010100000
0000000000000100
0000000011000000
0000001000000000
,
0011000000000000
0000000000000000
0100000000000000
0000000000000000
0001010000000000
0000000000000000
0011000000000000
0000000100000000
,
0000001000000000
0000000000000000
0000000001000000
0000000000100000
0000000000010010
0000000000000000
0000000000100000
0000000000000000
,
0000000010100000
0000010000000000
0000010100000000
0100000000000000
,
1010000000000000
0000001000000000
0000010100000000
0100000000000000
,
0100000100000000
0000000000000000
0000001000000000
0000000000000000
0001001000000000
0000000100000000
0000000000100000
0000000000000000
,
0000000010100000
0000000000000000
0000000000000101
0000000000000000
0000000001000010
0000000010000001
0000000000100000
0000000000000000
,
0000000001000000
0000010000000000
0000010100000000
0010000000000000
,
0101000000000000
0000010000000000
0000001100000000
0000010000000000
,
1010000000000000
0100000000000000
0000010100000000
0000010000000000
,
0001010000000000
0000000000000000
0010000000000000
0010000000000000
1010000000000000
0000000000000000
0000010000000000
0000000000000000
,
0000000001000000
0000000000100000
0000000000000101
0000000000100000
,
0000000000110000
0000000000000100
0000000010000010
0000000000100000
,
0000000011000000
0000001000000000
0100000100000000
0000010000000000
,
0010000100000000
0000000000000000
0000010000000000
0000010000000000
0000010100000000
0000000000000000
0000000001000000
0000000000000000
,
0000000000100000
0000000000000100
0000000000000010
0000000000100000
,
0000000000100000
0000000000000100
0000000001000000
0000000000000100
,
0000000000100000
0000000000000000
0000000001000000
0000001000000000
,
0000001000000000
0000000000000000
0000010000000000
0000000000000000
0100000000000000
0100000000000000
1100000000000000
0000000000000000
,
0010000000000000
0000010000000000
0000001000000000
0010000000000000
,
0100000000000000
0000010000000000
0000001000000000
0000001000000000
,
0000001000000000
0010000000000000
0010000000000000
0000001000000000
,
0000010000000000
0000000000000000
0000001000000000
0000001000000000
0000001100000000
0000000000000000
1011000000000000
0000000000000000
,
0001010100000000
0000010000000000
1000010000000000
0000001000000000
,
0011000000000000
0000001000000000
0000000001010000
0000000000000100
,
0000000011000000
0000000000100000
0000000000010100
0000000000000100
,
0000000000110000
0000000000000010
0000000000000011
0000000001000000
,
0000000011000000
0000000000100000
0000000011000000
0000010000000000
,
0001001000000000
0100000000000000
0000001100000000
0000010000000000
,
1100000000000000
0000001000000000
0000010100000000
0100000000000000
,
1010000000000000
0010000100000000
1000010000000000
1000000100000000
,
0000000000000000
0000000000000000
0000000000000000
1000000000000000
0001000000000000
0000000100000000
1010000000000000
0000000000000000
,
0000000000000000
0000010100000000
0000000000000000
0000000000110000
,
0000000000000000
0000000000000101
0000000000000000
0000000000000011
,
0000000000000000
0000000011000000
0000000000000000
0000000000110000
,
0000000000000000
0000000000000000
0000000000000010
0000000000000000
0000000000000010
0000000001000000
0000000000000100
0000000000000000
,
0000000010100000
0000000000000010
0000000000110000
0000000000000100
,
0000000010000010
0000000000100000
0000000001000001
0000000000000100
,
0000000000000101
0000000000100000
0000000010100000
0000000000000100
,
0000000000100000
0000000001000000
0000001000000000
0000010100000000
,
0000000000000000
0000000000000000
0000000000000000
0000000000000000
0000000000000000
0000000000000000
0011000000000000
1000000000000000
,
0000000000000000
0000000000000000
0000000000000000
0000000000000000
0000000000000000
0001001000000000
0000000000000000
0000000000000000
;
