#TITLE:HOT;
#SUBTITLE:;
#ARTIST:1TYM;
#TITLETRANSLIT:;
#SUBTITLETRANSLIT:;
#ARTISTTRANSLIT:;
#GENRE:;
#CREDIT:locuuraa;
#LYRICSPATH:;
#MUSIC:HOT.ogg;
#OFFSET:0.140;
#SAMPLESTART:12.000;
#SAMPLELENGTH:12.000;
#SELECTABLE:YES;
#BPMS:0.000=98.000;
#STOPS:;
#KEYSOUNDS:;
#BANNER:HOT.png;
#BACKGROUND:HOT.png;
#CDTITLE:../CDTitles/4DSS.png;
#BGCHANGES:-14.700=HOT.avi=1.000=0=0=1,
229.000=HOT.png=1.000=0=0=1,
99999=-nosongbg-=1.000=0=0=0
;
#NOTES:
     ds3ddx-single:
     Hard:
     Medium:
     4:
     :
00000000
00000000
00000000
00100001
,
00000000
00000000
00000000
10000100
,
00000000
00000000
00000000
00100100
,
00000000
00000000
00000000
00000000
00000000
00000000
01000010
00100000
,
00000100
00000100
01000000
00000010
00100000
00100000
10000001
00010000
,
00000100
01000000
00100000
00100000
00000100
00000001
01000000
00100000
,
00000100
00000010
00100000
00000100
01000000
00000010
00100000
01000000
,
00000010
01000001
00100000
00000100
00100000
10000000
00000100
00000100
,
00100000
00100000
00000100
00000010
01000000
00100000
00000100
10000000
,
00100000
00000001
00000100
00000100
01000000
00100000
01000000
00000001
,
00000010
10000000
01000000
01000000
00000100
00000010
00100000
00100000
,
01000000
01000000
00000100
00000010
01000000
01000000
00000100
00000100
,
00000010
00000010
00100000
01000000
00000010
00000010
10000001
00000000
,
00100000
00000000
00000100
00000000
00100000
00100000
00000100
00000000
,
01000000
00000000
00000010
00000000
00000100
00000100
01000000
00000000
,
00100000
00000000
01000000
00000000
00000010
00000010
00100000
01000000
,
00000010
01000000
00100000
00000100
10000000
00000001
00100000
00000000
,
00000100
01000000
00010100
00100000
,
01100000
00000000
00000100
00000100
10000000
00000000
00000100
00000000
,
00100000
00000010
00110000
00000100
,
00000110
00000000
00100000
00100000
00000001
00000000
01000000
00000000
,
00000010
00000100
00100001
00000100
,
01000000
00000000
00000010
00000010
10000000
00000000
00000010
00000000
,
01000000
00100000
10000100
00100000
,
00000010
00000000
01000000
01000000
00010000
00000000
10000001
00000000
,
00000000
00000000
00000000
00100100
,
00000000
00000000
00010000
00100001
,
00000000
00000000
00000000
10000100
,
00000000
00000000
00000000
00000000
00010000
00010000
00000010
00000000
,
00000110
01000000
01100000
00010000
,
00100100
00100000
00100100
00000010
,
11000000
00000000
00100000
00100000
10000100
00000000
00100000
00000000
,
01000000
00000000
00000001
00000000
00010000
00010000
00100000
00000000
,
00000100
01000000
00010100
00100000
,
01100000
00000000
00000100
00000100
10000000
00000000
00000100
00000000
,
00100000
00000010
00110000
00000100
,
00000110
00000000
00100000
00100000
00000001
00000000
01000000
00000000
,
00000010
00000100
00100001
00000100
,
01000000
00000000
00000010
00000010
10000000
00000000
00000010
00000000
,
01000000
00000000
00100000
00000000
10000100
00000000
00100000
00000100
,
00000010
01000000
00100000
00000100
00010000
00000000
00000101
00000000
;
#NOTES:
     ds3ddx-double:
     Club:
     Easy:
     4:
     :
0000000000000000
0000000000000000
0000000000000000
0010000100000000
,
0000000000000000
0000000000000000
0000000000000000
1000010000000000
,
0000000000000000
0000000000000000
0000000000000000
0010010000000000
,
0000000000000000
0000000000000000
0000000000000000
0000000000000000
0000000000000000
0000000000000000
0100001000000000
0010000000000000
,
0000010000000000
0000010000000000
0000001000000000
0000000001000000
0000000000100000
0000000000100000
0000000010000000
0000000000010000
,
0000000000000100
0000000000000110
0000000000100000
0000000000100000
0000000000000100
0000000000000001
0000000000100000
0000000001000000
,
0000001000000000
0000010000000000
0000001000000000
0000010000000000
0100000000000000
0000001000000000
0010000000000000
0100000000000000
,
0000001000000000
0100000100000000
0010000000000000
0000010000000000
0010000000000000
1000000000000000
0000010000000000
0000010000000000
,
0010000000000000
0010000000000000
0000010000000000
0000001000000000
0100000000000000
0010000000000000
0000010000000000
1000000000000000
,
0010000000000000
0000000100000000
0000010000000000
0000010000000000
0100000000000000
0010000000000000
0100000000000000
0000000100000000
,
0000001000000000
1000000000000000
0100000000000000
0100000000000000
0000010000000000
0000001000000000
0000000000100000
0000000000100000
,
0000000001000000
0000000001000000
0000000000000100
0000000000000010
0000000001000000
0000000001000000
0000010000000000
0000010000000000
,
0000001000000000
0000001000000000
0010000000000000
0100000000000000
0000001000000000
0000001000000000
1000000100000000
0000000000000000
,
0010000000000000
0000000000000000
0000010000000000
0000000000000000
0010000000000000
0010000000000000
0000010000000000
0000000000000000
,
0000001000000000
0000000000000000
0000000001000000
0000000000000000
0000000000100000
0000000000100000
0000000000000010
0000000000000000
,
0000000000000100
0000000000000000
0000000001000000
0000000000000000
0000000000000010
0000000000000010
0000000000100000
0000000001000000
,
0000000000000010
0000000001000000
0000000000100000
0000000000000100
0000000010000000
0000000000000001
0000000000100000
0000000000000000
,
0000010000000000
0000001000000000
0001010000000000
0010000000000000
,
0110000000000000
0000000000000000
0000010000000000
0000010000000000
1000000000000000
0000000000000000
0000010000000000
0000000000000000
,
0010000000000000
0000001000000000
0011000000000000
0000010000000000
,
0000011000000000
0000000000000000
0010000000000000
0010000000000000
0000000100000000
0000000000000000
0100000000000000
0000000000000000
,
0000001000000000
0000010000000000
0000000000110000
0000000000000100
,
0000000001000000
0000000000000000
0000000000000010
0000000000000010
0000000010000000
0000000000000000
0000001000000000
0000000000000000
,
0100000000000000
0010000000000000
1000010000000000
0010000000000000
,
0000001000000000
0000000000000000
0100000000000000
0100000000000000
0001000000000000
0000000000000000
1000000100000000
0000000000000000
,
0000000000000000
0000000000000000
0000000000000000
0000010000100000
,
0000000000000000
0000000000000000
0000000000010000
0000000000100001
,
0000000000000000
0000000000000000
0000000000000000
1000010000000000
,
0000000000000000
0000000000000000
0000000000000000
0000000000000000
0001000000000000
0001000000000000
0000001000000000
0000000000000000
,
0000011000000000
0100000000000000
0110000000000000
0001000000000000
,
0010010000000000
0010000000000000
0010010000000000
0000001000000000
,
1100000000000000
0000000000000000
0010000000000000
0010000000000000
1000010000000000
0000000000000000
0010000000000000
0000000000000000
,
0100000000000000
0000000000000000
0000000100000000
0000000000000000
0001000000000000
0001000000000000
0000010000000000
0000000000000000
,
0000000000100000
0000000001000000
0000000000010100
0000000000100000
,
0000000001100000
0000000000000000
0000000000000100
0000000000000100
0000000010000000
0000000000000000
0000000000000100
0000000000000000
,
0000000000100000
0000000000000010
0000000000110000
0000000000000100
,
0000000000000110
0000000000000000
0000000000100000
0000000000100000
0000000000000001
0000000000000000
0000000001000000
0000000000000000
,
0000001000000000
0000010000000000
0010000100000000
0000010000000000
,
0100000000000000
0000000000000000
0000001000000000
0000001000000000
1000000000000000
0000000000000000
0000001000000000
0000000000000000
,
0100000000000000
0000000000000000
0010000000000000
0000000000000000
1000010000000000
0000000000000000
0010000000000000
0100000000000000
,
0000001000000000
0000000001000000
0000000000100000
0000000000000100
0000000000000001
0000000000000000
0000000010000100
0000000000000000
;
