#TITLE:HOT MAIL;
#SUBTITLE:;
#ARTIST:SM TOWN;
#TITLETRANSLIT:;
#SUBTITLETRANSLIT:;
#ARTISTTRANSLIT:;
#GENRE:;
#CREDIT:locuuraa;
#LYRICSPATH:;
#MUSIC:HOT MAIL.ogg;
#OFFSET:1.220;
#SAMPLESTART:11.460;
#SAMPLELENGTH:12.000;
#SELECTABLE:YES;
#BPMS:0.000=129.000;
#STOPS:;
#KEYSOUNDS:;
#BANNER:HOT MAIL.png;
#BACKGROUND:HOT MAIL.png;
#CDTITLE:../CDTitles/4DSS.png;
#BGCHANGES:-14.700=HOT MAIL.avi=1.000=0=0=1,
229.000=HOT MAIL.png=1.000=0=0=1,
99999=-nosongbg-=1.000=0=0=0
;
#NOTES:
     ds3ddx-single:
     Hard:
     Medium:
     4:
     :
00000000
00000000
00000000
00000000
,
00000000
00000000
00000000
00000000
00000000
00010000
10000000
00000000
,
00000000
00000000
00000000
00000000
00000000
00010000
00000001
00000000
,
00000000
00000000
00000000
00010000
,
00000000
00000000
00000000
00010000
,
00100100
00000001
00100100
10000000
,
01100000
00010000
00000110
00000100
,
00100000
00000000
00000000
00000100
00000000
00000000
00100000
00000000
00000000
00000100
00000000
01000010
,
00000000
10000001
00000000
00000000
00000000
00000000
00100000
00000000
,
00000010
00000100
01000000
00100000
,
00100000
00000010
00000010
00100000
,
00000100
00000100
01000000
00100000
,
00000100
00000010
01000000
00000100
,
00000100
01000000
01000000
00100000
,
00000010
01000000
00100000
00000010
,
00000100
00100000
01000000
00000010
,
00000100
00100000
00010000
10000001
,
00000000
00100000
00000000
00000101
,
00000000
11000000
00000000
00110000
,
00000000
00000101
00000000
00110000
,
00000000
10000100
00000000
00011000
,
00100000
01000000
01000000
00010000
,
00000100
00000010
00000010
01000000
,
00000100
00100000
00000100
00100000
,
01000000
00000010
00000100
10000001
,
00000000
11000000
00000000
00000101
,
00000000
00100001
00000000
10000100
,
00000000
10100000
00000000
00000011
,
01000000
01000000
00010000
01101000
,
00000000
00011000
00000000
10000001
,
00000000
01010000
00000000
00010010
,
00100000
00000100
00100000
01000001
,
00010000
10000000
00000001
00011010
,
00000000
00010100
00000000
00110000
,
00000000
01001000
00000000
00111000
,
00000000
01000001
00000000
10000010
,
00000000
10000100
00000000
00100000
,
00100000
00000100
00000100
01000000
,
00000010
01000000
00000010
00010000
,
00010000
00010000
00010000
10000001
,
00000000
01000000
00000011
01000000
,
01000000
00000010
00000010
00100000
,
00011000
00000000
00000000
00100000
00000000
00000100
00000000
11000000
00000000
00011000
00000000
00000000
,
00000000
10000001
00000000
10010000
,
00000000
00001001
00000000
10000000
,
00000100
00000100
10000000
01000000
,
00000001
00100000
00100000
00000100
,
00000100
01000000
00000010
00000100
,
00100000
00010000
10000000
00001000
,
00000001
00100000
00000100
00100000
,
00100000
00000010
01000000
00000010
,
00000010
01000000
00100000
00000100
,
00100000
10000001
00010000
00000100
,
00000000
00100001
00000000
00000010
,
00000000
01000001
00000000
00000010
,
00000010
00000100
00000100
00100000
,
00100000
01000000
01000000
00011000
;
