#TITLE:HERO;
#SUBTITLE:;
#ARTIST:SM TOWN feat. Shinhwa;
#TITLETRANSLIT:;
#SUBTITLETRANSLIT:;
#ARTISTTRANSLIT:;
#GENRE:;
#CREDIT:locuuraa;
#LYRICSPATH:;
#MUSIC:HERO.ogg;
#OFFSET:3.220;
#SAMPLESTART:11.080;
#SAMPLELENGTH:12.000;
#SELECTABLE:YES;
#BPMS:0.000=112.010;
#STOPS:;
#KEYSOUNDS:;
#BANNER:HERO.png;
#BACKGROUND:HERO.png;
#CDTITLE:../CDTitles/4DSS.png;
#BGCHANGES:-14.700=HERO.avi=1.000=0=0=1,
229.000=HERO.png=1.000=0=0=1,
99999=-nosongbg-=1.000=0=0=0
;
#NOTES:
     ds3ddx-single:
     Hard:
     Medium:
     4:
     :
00000000
00000000
00000000
00000000
,
00000000
00000000
00000000
00000000
,
00000000
00000000
00000000
00000000
,
00000000
00000000
00000000
00000000
,
00000000
00000000
00000000
00000000
,
00000000
00000000
01000010
10000001
,
10000000
00000001
01000000
01000000
,
01000000
00000000
00010000
00000000
01000000
00000000
00000100
10100000
,
10000100
00000000
00100000
00010000
00100100
00000000
00000000
00000000
,
00000000
00100100
01110000
00000100
,
00100000
01000000
01000000
00000010
,
00000001
00100000
00000100
00010100
,
00000100
00000000
00010100
00000000
10100001
00000000
00000001
00000001
,
00000100
00100000
00000010
00100000
,
00000000
00000000
00000000
00000001
00100000
00000000
00000100
00000000
,
00000000
00010100
00000000
00110000
,
00000000
00000000
00010000
00000000
00000000
00000000
00001000
10000000
,
00010000
00000000
00010000
10000000
00001000
00000010
01000000
00000000
,
00000000
00000010
00000010
01000000
,
01000000
00000010
00000000
00000001
,
00010000
00010000
00100000
00000100
,
00000100
00000000
00000010
00000000
01000010
00000000
01000000
00100000
,
00000100
00000000
00000001
00000000
00000001
00000000
10000000
00000001
,
00000000
00100101
00000000
00000000
,
10010000
00000000
00010000
00000000
00100100
00000000
00000010
00000100
,
00000000
00010100
00000000
10100001
,
00000100
00110000
00100100
00000000
,
00000000
00100000
10010000
00010000
,
00010000
00100100
00000001
00000000
01000000
00000000
00000010
00000000
,
00000000
00000100
00000100
00100000
,
00100000
00000000
00000000
00000100
00000000
00000000
00000100
00000000
00000000
00110000
10000000
00010000
,
10000000
00000000
10010000
00000000
00000000
00000000
00000001
10000000
,
00000001
00000000
00010000
00000001
10000000
00000000
10000000
00000000
,
00000001
00000001
01000000
00010000
,
00000100
00000000
00000100
00000000
00000000
00000100
00100000
00000000
,
00000000
00100000
00000100
00000000
00000000
00000000
00010100
00000000
,
00000000
00000000
00010000
00000010
,
01000000
00000111
00010110
00000000
,
00000010
00000000
01000000
00000000
,
01000000
00000010
00000010
00010100
,
00000000
00000000
00000000
00000000
,
00000000
00000000
00000000
00000000
00000010
00000000
00010000
10000000
,
00000001
00010000
00000000
00000000
00000010
00000000
00000100
00000000
,
00000100
00100000
01000000
00010100
,
00010100
00000101
00000101
00010000
,
00100000
00000000
00000000
00000000
00000100
00000000
01000000
01000000
,
00000010
00000000
00000001
00010000
00000000
00000000
00010000
00000000
,
00000100
00000100
00000100
00110000
,
10100000
00000000
00000100
11000000
,
00000011
00000000
00010000
10000000
00010000
00000000
00000000
00000000
;
#NOTES:
     ds3ddx-single:
     Easy:
     Easy:
     2:
     :
00000000
00000000
00000000
00000000
,
00000000
00000000
00000000
00000000
,
00000000
00000000
00000000
00000000
,
00000000
00000000
00000000
00000000
,
00000000
00000000
00000000
00000000
,
00000000
00000000
01000010
00000000
,
10000000
00000001
00000000
01000000
,
00000000
00010000
00000000
00000100
,
00000100
00100000
00000000
00000000
,
00000000
00100100
00000000
00000100
,
00100000
00000000
01000000
00000000
,
00000001
00000000
00000100
00000000
,
00100000
00000000
10100001
00000000
,
00000100
00100000
00000010
00100000
,
00000000
00000000
00100000
00000100
,
00000000
00010000
00000000
00010000
,
00000000
00010000
00000000
00000000
,
00010000
00010000
00000000
00000000
,
00000000
00000010
00000000
01000000
,
00000000
00000010
00000000
00000001
,
00010000
00010000
00000000
00000100
,
00000100
00000000
01000000
00000000
,
00000100
00000000
00000001
10000000
,
00000000
00100100
00000000
00000000
,
00010000
00000000
00100000
00000000
,
00000000
00010100
00000000
10000001
,
00000000
00010000
00000000
00000000
,
00000000
00100000
00000000
00010000
,
00000000
00000001
01000000
00000010
,
00000000
00000100
00000000
00100000
,
00000000
00000100
00000000
00000000
,
00000000
10010000
00000000
00000000
,
00000001
00010000
00000000
10000000
,
00000000
00000001
01000000
00000000
,
00000100
00000000
00000000
00100000
,
00000000
00000100
00000000
00010100
,
00000000
00000000
00010000
00000010
,
01000000
00000000
00010000
00000000
,
00000010
00000000
01000000
00000000
,
01000000
00000010
00000000
00010000
,
00000000
00000000
00000000
00000000
,
00000000
00000000
00000010
00000000
,
10000000
00000000
00000010
00000000
,
00000100
00100000
00000000
00010000
,
00010000
00000001
00000001
00010000
,
00000000
00000000
00000100
01000000
,
00000000
00000010
00000000
00010000
,
00000000
00000100
00000000
00010000
,
10000000
00000000
00000100
00000000
,
00000010
00010000
00010000
00000000
;
#NOTES:
     ds3ddx-double:
     Club:
     Easy:
     4:
     :
0000000000000000
0000000000000000
0000000000000000
0000000000000000
,
0000000000000000
0000000000000000
0000000000000000
0000000000000000
,
0000000000000000
0000000000000000
0000000000000000
0000000000000000
,
0000000000000000
0000000000000000
0000000000000000
0000000000000000
,
0000000000000000
0000000000000000
0000000000000000
0000000000000000
,
0000000000000000
0000000000000000
0100001000000000
1000000100000000
,
1000000000000000
0000000100000000
0000000000100000
0000000000100000
,
0000000000100000
0000000000000000
0000000000110000
0000000000000000
0000000001000000
0000000000000000
0000000000000100
0000000010100000
,
0000000010000100
0000000000000000
0000000000100000
0000000000010000
0000000000100100
0000000000000000
0000000000000000
0000000000000000
,
0000000000000000
0000000000100100
0000000001110000
0000000000000100
,
0000000000100000
0000000001000000
0000001000000000
0100000000000000
,
0000000100000000
0010000000000000
0000010000000000
0001010000000000
,
0000010000000000
0000000000000000
0001010000000000
0000000000000000
1010000100000000
0000000000000000
0000000100000000
0000000100000000
,
0000010000000000
0010000000000000
0000001000000000
0000000000100000
,
0000000000000000
0000000000000000
0000000000000000
0000000000000001
0000000000100000
0000000000000000
0000000000000100
0000000000000000
,
0000000000000000
0000000000010100
0000000000000000
0000000000110000
,
0000000000000000
0000000000000000
0000000000010000
0000000000000000
0000000000000000
0000000000000000
0000000000001000
0000000010000000
,
0000000000010000
0000000000000000
0000000000010000
0000000010000000
0000000000001000
0000000000000010
0000000001000000
0000000000000000
,
0000000000000000
0000001000000000
0000001000000000
0100000000000000
,
0100000000000000
0000001000000000
0000000000000000
0000000100000000
,
0001000000000000
0001000000000000
0010000000000000
0000010000000000
,
0000010000000000
0000000000000000
0000001000000000
0000000000000000
0100001000000000
0000000000000000
0100000000000000
0010000000000000
,
0000010000000000
0000000000000000
0000000100000000
0000000000000000
0000000100000000
0000000000000000
1000000000000000
0000000100000000
,
0000000000000000
0010010100000000
0000000000000000
0000000000000000
,
0000000010010000
0000000000000000
0000000000010000
0000000000000000
0000000000100100
0000000000000000
0000000000000010
0000000000000100
,
0000000000000000
0000000000010100
0000000000000000
0000000010100001
,
0000000000000100
0000000000110000
0000000000100100
0000000000000000
,
0000000000000000
0000010000000000
1001000000000000
0001000000000000
,
0001000000000000
0010010000000000
0000000100000000
0000000000000000
0100000000000000
0000000000000000
0000001000000000
0000000000000000
,
0000000000000000
0000010000000000
0000010000000000
0000000001000000
,
0000000001000000
0000000000000000
0000000000000000
0000000000000100
0000000000000000
0000000000000000
0000000000000100
0000000000000000
0000000000000000
0000000000110000
0000000010000000
0000000000010000
,
0000000010000000
0000000000000000
0000000010010000
0000000000000000
0000000000000000
0000000000000000
0000000000000001
0000000010000000
,
0000000000000001
0000000000000000
0000000000010000
0000000000000001
0000000010000000
0000000000000000
0000000010000000
0000000000000000
,
0000000000000001
0000000000000001
0000000001000000
0001000000000000
,
0000010000000000
0000000000000000
0000010000000000
0000000000000000
0000000000000000
0000010000000000
0010000000000000
0000000000000000
,
0000000000000000
0010000000000000
0000010000000000
0000000000000000
0000000000000000
0000000000000000
0000000000010100
0000000000000000
,
0000000000000000
0000000000000000
0000000000010000
0000000000000010
,
0000000011000000
0000000000000110
0000000000000110
0000000000000000
,
0000000001000000
0000000000000000
0000000001000000
0000000000000000
,
0000000001000000
0000000000000010
0000000000000010
0000000000010100
,
0000000000000000
0000000000000000
0000000000000000
0000000000000000
,
0000000000000000
0000000000000000
0000000000000000
0000000000000000
0000001000000000
0000000000000000
0001000000000000
1000000000000000
,
0000000100000000
0001000000000000
0000000000000000
0000000000000000
0000001000000000
0000000000000000
0000010000000000
0000000000000000
,
0000010000000000
0010000000000000
0100000000000000
0001010000000000
,
0001010000000000
0000010100000000
0000010100000000
0001000000000000
,
0010000000000000
0000000000000000
0000000000000000
0000000000000000
0000000000000100
0000000000000000
0000000001000000
0000000001000000
,
0000000000000010
0000000000000000
0000000000000001
0000000000010000
0000000000000000
0000000000000000
0000000000010000
0000000000000000
,
0000000000000100
0000000000000100
0000000000000100
0000000000110000
,
0000000010100000
0000000000000000
0000010000000000
1100000000000000
,
0000001100000000
0000000000000000
0001000000000000
1000000000000000
0001000000000000
0000000000000000
0000000000000000
0000000000000000
;
