#TITLE:Girlfriend;
#SUBTITLE:;
#ARTIST:Avril Lavigne;
#TITLETRANSLIT:;
#SUBTITLETRANSLIT:;
#ARTISTTRANSLIT:;
#GENRE:;
#CREDIT:locuuraa;
#LYRICSPATH:;
#MUSIC:Girlfriend.ogg;
#OFFSET:1.640;
#SAMPLESTART:10.860;
#SAMPLELENGTH:12.000;
#SELECTABLE:YES;
#BPMS:0.000=163.930,136.000=81.970,149.000=163.930;
#STOPS:;
#KEYSOUNDS:;
#BANNER:Girlfriend.png;
#BACKGROUND:Girlfriend.png;
#CDTITLE:../CDTitles/4DSS.png;
#BGCHANGES:-14.700=Girlfriend.avi=1.000=0=0=1,
229.000=Girlfriend.png=1.000=0=0=1,
99999=-nosongbg-=1.000=0=0=0
;
#NOTES:
     ds3ddx-single:
     Hard:
     Medium:
     5:
     :
00000000
00000000
00000000
00000000
,
00000000
00000000
00000000
00000000
,
11000000
00000000
00000011
00000000
,
00100000
00100000
00000100
00010000
,
00000011
00000000
11000000
00000000
,
00100000
00100000
00000100
00010000
,
10000000
10000000
00010000
00010000
,
00100000
00000100
00010000
00010000
,
00100000
00000000
00000100
01000000
00000000
00100000
00000010
00000000
,
01000000
01000000
01000000
01000000
00100000
00000000
00100100
00000000
,
00000101
00000101
10100000
10100000
,
00000100
00100000
00000100
00100000
,
11000000
11000000
00000011
00000011
,
01000000
00000010
01000000
00000010
,
11000000
00000011
11000000
00000011
,
00100000
00000100
00100000
00000100
,
00000100
00000000
00100000
01000000
00000000
01000000
00000010
00000000
,
00100000
00100000
00100000
00100000
01000000
00000000
01000010
00000000
,
00000000
00000000
00000000
00000000
,
00000000
00000000
00000000
00000000
,
00100000
00100000
00000100
00000100
01000000
01000000
00000010
00000010
,
00100000
01000000
00100000
01000000
00000100
00000000
00100100
00000000
,
00000100
00000001
00100000
10000000
00010000
00010000
00010000
00010000
,
00100000
01000000
00000010
00000100
00010000
00000000
00000000
00000000
,
10000001
00000000
00011000
00000000
,
10000001
00000000
00011000
00000000
,
00000100
00100000
00100000
00000100
,
00100001
10000100
00100001
10000100
,
00000000
00100000
00000010
01000000
,
10000010
01000001
10000010
01000001
,
00000000
00000010
00000100
00100000
,
01000000
00010000
00010000
10000000
,
00000001
00000000
10000001
00000000
,
00011000
00000000
10000001
00000000
,
00100000
00000000
01000000
00000000
00000010
00000010
10000000
00010000
,
00000100
00000000
00000010
00000000
01000000
01000000
10000000
00010000
,
00000100
00100000
01000000
00000010
,
00010000
00000000
00100000
00100000
00100000
00000000
00000100
00000000
,
00100000
00000100
10000101
00000101
,
00000101
10100000
10100000
00000100
,
00100000
00000100
00100000
11000000
,
11000000
00000011
00000011
01000000
,
00000010
01000000
00000010
11000000
,
00000011
11000000
00000011
00100000
,
00000100
00100000
00000100
00100000
,
00010000
00000000
00000000
00000000
00010000
00000000
00100000
00100000
,
00100000
00100000
01000000
00000000
01000010
00000000
00100000
00000100
,
00100000
00000100
00010000
00000000
00010000
00000000
01000000
00000010
,
01000000
00000010
00001000
00000000
00001000
00000000
00100000
01000000
,
00100000
01000000
00010000
00000000
00010000
00000000
00000100
00000010
,
00000100
00000010
00001000
00000000
00001000
00000000
10100000
00000000
,
00000101
00000000
11000000
00000000
00000011
00000000
00100000
00100000
,
00000100
00000100
00100100
00000000
10000001
00000000
00010000
00000000
,
00000000
00000000
00000000
00000000
00010000
00000000
00100000
00100000
,
00100000
00100000
01000000
00000000
01000010
00000000
10000000
00000000
,
10000000
10000000
10000000
00010000
,
00000001
00000001
00000001
00100000
,
00000100
01000000
01000000
00100000
,
00000100
00000010
00000010
00000001
,
00000001
00000001
00000001
00010000
,
10000000
10000000
10000000
00010000
,
00000000
00000000
10000001
00010000
,
00100000
00100000
00100000
00100000
01000000
00000000
01000010
00000000
;
#NOTES:
     ds3ddx-single:
     Easy:
     Easy:
     5:
     :
00000000
00000000
00000000
00000000
,
00000000
00000000
00000000
00000000
,
01000000
00000000
00000010
00000000
,
00100000
00000000
00000100
00000000
,
00000011
00000000
11000000
00000000
,
00100000
00000000
00000100
00000000
,
10000000
00000000
00010000
00000000
,
00100000
00000000
00010000
00010000
,
00000000
00000100
00000000
00000010
,
01000000
00000000
00100000
00000000
,
00000101
00000000
10100000
00000000
,
00000100
00100000
00000100
00100000
,
00000000
11000000
00000000
00000011
,
00000000
00000010
01000000
00000010
,
10000000
00000001
01000000
00000010
,
00100000
00000000
00100000
00000000
,
00000100
00000000
01000000
00000010
,
00100000
00000000
01000000
01000010
,
00000000
00000000
00000000
00000000
,
00000000
00000000
00000000
00000000
,
00100000
00000100
01000000
00000010
,
00100000
00100000
00000100
00000100
,
00000100
00000000
00010000
00000000
,
00100000
00000000
00010000
00000000
,
10000001
00000000
00011000
00000000
,
10000001
00000000
00011000
00000000
,
00000100
00000000
00100000
00000000
,
00100000
00000000
00100000
00000000
,
00000000
00100000
00000000
01000000
,
00000000
01000001
00000000
01000001
,
00000000
00000010
00000000
00100000
,
00000000
00010000
00000000
10000000
,
00000001
00000000
10000001
00000000
,
00011000
00000000
10000001
00000000
,
00100000
00000000
00000010
00000000
,
00000100
00000000
01000000
00000000
,
00000100
00100000
01000000
00000010
,
00010000
00000000
00100000
00000100
,
00100000
00000100
00000000
00000101
,
00000000
10100000
00100000
00000100
,
00100000
00000100
00100000
00000000
,
01000000
00000010
00000000
01000000
,
00000010
01000000
00000010
10000000
,
00000001
00000000
00000011
00000000
,
00000100
00100000
00000100
00100000
,
00000000
00000000
00010000
00100000
,
00000000
01000000
01000010
00000000
,
00100000
00000000
00010000
01000000
,
00000000
00001000
00000000
00100000
,
00000000
00010000
00010000
00000100
,
00000000
00001000
00000000
00100000
,
00000100
00000000
00000011
00100000
,
00000100
00000000
10000001
00010000
,
00000000
00000000
00010000
00100000
,
00000000
01000000
01000010
10000000
,
00000000
10000000
00000000
00010000
,
00000001
00000000
00000001
00100000
,
00000100
01000000
00000000
00100000
,
00000000
00000010
00000010
00000001
,
00000000
00000001
00000000
00010000
,
10000000
00000000
10000000
00010000
,
00000000
00000000
10000001
00000000
,
00100000
00000000
01000000
01000010
;
#NOTES:
     ds3ddx-double:
     Club:
     Easy:
     5:
     :
0000000000000000
0000000000000000
0000000000000000
0000000000000000
,
0000000000000000
0000000000000000
0000000000000000
1100000000000000
,
0000000000000000
0000001100000000
0000000000000000
0010000000000000
,
0010000000000000
0000010000000000
0001000000000000
0000001100000000
,
0000000000000000
0000000011000000
0000000000000000
0000000000100000
,
0000000000100000
0000000000000100
0000000000010000
0000000010000000
,
0000000010000000
0000000000010000
0000000000010000
0000000000100000
,
0000000000000100
0000000000010000
0000000000010000
0000000000100000
,
0000000000000100
0000000001000000
0000000000000000
0000000000100000
0000000000000010
0000000000000000
0000000001000000
0000000001000000
,
0000000001000000
0000000001000000
0000010000000000
0000000000000000
0000010000100000
0000000000000000
0001010000000000
0000000000000000
,
0001010000000000
1010000000000000
1010000000000000
0000010000000000
,
0010000000000000
0000010000000000
0010000000000000
1100000000000000
,
1100000000000000
0000001100000000
0000001100000000
0100000000000000
,
0000001000000000
0000010000000000
0000000000100000
0000000011000000
,
0000000000000011
0000000011000000
0000000000000011
0000000000100000
,
0000000000000100
0000000000100000
0000000000000100
0000000000000100
,
0000000000100000
0000000001000000
0000000000000000
0000000001000000
0000000000000010
0000000000000000
0000000000100000
0000000000100000
,
0000000000100000
0000000000100000
0000000001000000
0000000000000000
0000000001000010
0000000000000000
0000000000000000
0000000000000000
,
0000000000000000
0000000000000000
0000000000000000
0000000000000000
,
0000000000000000
0000000000000000
0000000000000000
0000000000000000
0000000000000000
0000000000000000
0010000000000000
0010000000000000
,
0000010000000000
0000010000000000
0100000000000000
0100000000000000
0000001000000000
0000001000000000
0010000000000000
0100000000000000
,
0010000000000000
0100000000000000
0000010000000000
0000000000000000
0010010000000000
0000000000000000
0000010000000000
0000000100000000
,
0010000000000000
1000000000000000
0001000000000000
0001000000000000
0001000000000000
0001000000000000
0010000000000000
0100000000000000
,
0000001000000000
0000010000000000
0001000000000000
0000000000000000
0000000000000000
0000000000000000
0000000010000001
0000000000000000
,
0000000000000000
0000000000011000
0000000000000000
0000000010000001
,
0000000000000000
0000000000011000
0000000000000000
0000000000000100
,
0000000000100000
0000000000100000
0000000000000100
0000000000100001
,
0000000010000100
0000000000100001
0000000010000100
0000000000000000
,
0000010000000000
0000001000000000
0100000000000000
1000001000000000
,
0100000100000000
1000001000000000
0100000100000000
0000000000000000
,
0000001000000000
0000010000000000
0010000000000000
0100000000000000
,
0001000000000000
0001000000000000
1000000000000000
0000000100000000
,
0000000000000000
0000000010000001
0000000000000000
0000000000011000
,
0000000000000000
0000000010000001
0000000000000000
0000000000100000
,
0000000001000000
0000000000000000
0000000000000010
0000000000000010
0000000010000000
0000000000010000
0000000000000100
0000000000000000
,
0000000000000010
0000000000000000
0000000001000000
0000000001000000
0000000010000000
0000000000010000
0000000000000100
0000000000000000
,
0000000000100000
0000000001000000
0000001000000000
0001000000000000
,
0010000000000000
0010000000000000
0010000000000000
0000000000000000
0000010000000000
0000000000000000
0010000000000000
0000000000000000
,
0000010000000000
1000010100000000
0000010100000000
0000010100000000
,
1010000000000000
1010000000000000
0000010000000000
0010000000000000
,
0000010000000000
0010000000000000
1100000000000000
1100000000000000
,
0000001100000000
0000001100000000
0100000000000000
0000001000000000
,
0000010000000000
0000000000100000
0000000011000000
0000000000000011
,
0000000011000000
0000000000000011
0000000000100000
0000000000000100
,
0000010000000000
0000000000100000
0000010000000000
0001000000000000
,
0000000000000000
0000000000000000
0001000000000000
0000000000000000
0010000000000000
0010000000000000
0010000000000000
0010000000000000
,
0100000000000000
0000000000000000
0100001000000000
0000000000000000
0010000000000000
0000010000000000
0010000000000000
0000010000000000
,
0001000000000000
0000000000000000
0001000000000000
0000000000000000
0100000000000000
0000001000000000
0100000000000000
0000001000000000
,
0000100000000000
0000000000000000
0000100000000000
0000000000000000
0010000000000000
0100000000000000
0010000000000000
0100000000000000
,
0001000000000000
0000000000000000
0000000000010000
0000000000000000
0000000000100000
0000000001000000
0000000000100000
0000000001000000
,
0000000000001000
0000000000001000
0000000010100000
0000000000000101
,
0000000011000000
0000000000000000
0000000000000011
0000000000000000
0000000000100000
0000000000100000
0000000000000100
0000000000000100
,
0000000000100100
0000000010000001
0000000000010000
0000000000000000
,
0000000000000000
0000000000000000
0001000000000000
0000000000000000
0010000000000000
0010000000000000
0010000000000000
0010000000000000
,
0100000000000000
0100001000000000
1000000000000000
1000000000000000
,
1000000000000000
1000000000000000
0001000000000000
0000000100000000
,
0000000100000000
0000000100000000
0010000000000000
0000010000000000
,
0100000000000000
1100000000000000
0000010000000000
0000000000000000
,
0000001000000000
0000000000100000
0000000000010000
0000000000010000
,
0000000000010000
0000000000010000
0001000000000000
1000000000000000
,
1000000000000000
1000000000000000
0001000000000000
0000000000000000
,
0000000000000000
0000000000000000
0000000010000001
0000000000000000
0000000000010000
0000000000000000
0000000000100000
0000000000100000
,
0000000000100000
0000000000100000
0000000001000000
0000000000000000
0000000000000000
0000000000000000
0000000001000010
0000000000000000
;
