#TITLE:Get The Beat;
#SUBTITLE:;
#ARTIST:DJ.Hong;
#TITLETRANSLIT:;
#SUBTITLETRANSLIT:;
#ARTISTTRANSLIT:;
#GENRE:;
#CREDIT:locuuraa;
#LYRICSPATH:;
#MUSIC:Get The Beat.ogg;
#OFFSET:1.040;
#SAMPLESTART:11.500;
#SAMPLELENGTH:12.000;
#SELECTABLE:YES;
#BPMS:0.000=95.020;
#STOPS:;
#KEYSOUNDS:;
#BANNER:Get The Beat.png;
#BACKGROUND:Get The Beat.png;
#CDTITLE:../CDTitles/4DSS.png;
#BGCHANGES:-14.700=Get The Beat.avi=1.000=0=0=1,
229.000=Get The Beat.png=1.000=0=0=1,
99999=-nosongbg-=1.000=0=0=0
;
#NOTES:
     ds3ddx-single:
     Hard:
     Medium:
     3:
     :
00000000
00000000
00000000
00000000
,
00000000
00000000
01000000
00000000
,
00000100
00000000
00100000
00000000
,
00000010
00000000
00100000
00000000
,
00000010
00000000
01000000
00000000
,
00100000
10000000
00000001
00000000
00000100
00000000
00100000
00000000
,
00000100
00010000
00100000
00000001
,
01000000
00000000
00010000
00000000
00100000
00000000
00000100
00010000
,
00000010
00000000
01000000
00000001
10000000
00000000
00100000
00000000
,
00000100
00000100
00100000
00000000
00000100
00000000
00000100
00000000
,
00100000
00100000
00010000
00000000
,
00000000
00010000
01000000
00000010
,
00000100
00100000
01000000
01000000
,
00000010
00000100
00100000
00100000
,
00100000
10000000
00000010
00000000
00000100
00000000
00000100
00000000
,
00000100
00000001
01000000
00000000
00100000
00000000
00000100
00000000
,
00100000
00010000
00000010
01000000
,
00000010
00000001
10000000
00000000
00000000
00000000
00000000
00000000
,
00000000
00000000
00000000
00000000
,
00000000
00000000
00100000
00000100
,
00100000
10000000
00000001
00010000
00000100
00000000
00100000
00000000
,
00000100
00000100
00010000
00100000
,
00000010
00000000
00000001
00010000
00100000
00000000
00000100
00000001
,
00000010
00000000
01000000
00010000
00100000
00000000
00000100
00000000
,
00100000
00100000
01000000
00000000
00000100
00000000
01000000
00000000
,
00100000
00100000
00000100
00000000
00000100
00000000
00000010
00000000
,
01000000
00000000
10000001
00000000
00100000
00000000
00000100
00001000
,
00000100
00000000
00100000
00010000
01000000
00000000
00000000
00000000
,
01000000
00100000
01010000
00000000
10000001
00000000
00011000
00000000
,
00100000
00000100
00010000
00000000
00011000
00000000
10000001
00000000
,
00000010
01000000
00001000
00000000
00100000
00000000
01000000
00000000
,
00000010
00000100
00100000
00000100
,
00100000
00100000
00000001
00000000
10000001
00000000
00011000
00000000
,
01000000
00000010
00001000
00000000
00011000
00000000
10000001
00000000
,
00000100
00100000
00010000
00000000
01000000
00000000
00100000
00000000
,
00000100
00000010
01000000
00000010
,
01000000
01000000
10000000
00000000
00000001
00000000
00000000
00000000
;
