#TITLE:GET DOWN;
#SUBTITLE:;
#ARTIST:后街男孩;
#TITLETRANSLIT:;
#SUBTITLETRANSLIT:;
#ARTISTTRANSLIT:Backstreet Boys;
#GENRE:;
#CREDIT:locuuraa;
#LYRICSPATH:;
#MUSIC:GET DOWN.ogg;
#OFFSET:-0.140;
#SAMPLESTART:11.980;
#SAMPLELENGTH:12.000;
#SELECTABLE:YES;
#BPMS:0.000=113.100;
#STOPS:;
#KEYSOUNDS:;
#BANNER:GET DOWN.png;
#BACKGROUND:GET DOWN.png;
#CDTITLE:../CDTitles/4DSS.png;
#BGCHANGES:-14.700=GET DOWN.avi=1.000=0=0=1,
229.000=GET DOWN.png=1.000=0=0=1,
99999=-nosongbg-=1.000=0=0=0
;
#NOTES:
     ds3ddx-single:
     Hard:
     Medium:
     3:
     :
00000000
00000000
00000000
00000000
,
00000000
00000000
00000000
00000000
,
00000000
00000000
00000000
00000000
,
00000000
00000000
00000000
00000000
,
01000000
00000010
10100000
00000101
,
01000000
00000100
00000010
11000000
,
00100000
00000010
01000000
01000000
,
00000100
00100000
00000100
00100000
01000000
00000000
11000011
00100000
,
00010100
00000000
00000000
00000100
01010000
00000000
00000011
00000000
,
01000000
00000000
01000000
00000000
00000010
01000000
00010100
01000000
,
00000011
00000000
00000000
00000100
01000000
00000000
00000101
00000000
,
01000000
00000000
01000000
00000000
00000100
01000000
00000011
00000000
,
11000001
00000100
00100000
00000100
,
00000011
00100000
11000000
00000100
,
00100000
00000000
00100100
00000000
00000100
01000000
00000101
00000000
,
01000000
00000000
00000000
00000000
00000010
00000010
11000000
00000000
,
00000100
10110000
01000000
00010100
,
00000010
00000000
11000011
00000000
00100000
00000010
00100000
00000000
,
00100000
01100000
00000100
00000110
,
01000000
00000000
00000010
00000000
00100000
00100000
00000100
00100000
,
00000100
01000000
00000011
00000101
,
01000000
00000100
11000000
00000010
,
00100000
10100101
00000010
11000011
,
01000000
00000000
00000100
00000000
00100000
00000100
11000000
00000000
,
00000100
00000011
01000000
00010100
,
00001010
00100000
01001000
00000010
,
01000000
10000000
01000000
10000011
,
00100100
00000000
01000010
00000000
00000110
00000000
01100000
00000100
,
00110000
00000000
00000000
00100000
00000101
00000000
00000100
00000000
,
11000000
00000000
00100000
00000000
00000010
00000000
01000000
00100000
,
00010010
00000000
00000000
00000100
01010000
00000000
00000101
00000000
,
01000000
00000000
01000010
00000000
00000100
00100000
00000100
00100000
,
00010100
00000000
00000000
00000100
00110000
00000000
00000011
00000000
,
00000100
00000000
00000010
00000000
00000100
00000010
00000100
00000010
,
11000000
00000000
00000000
00000100
10100000
00000000
00000100
00000000
,
00100000
00000000
01000000
00000000
00100000
01000000
00100000
00000100
,
01100000
00000000
00000000
00100000
00000110
00000000
10100011
00000000
,
00000100
00000000
00100000
00000000
00000100
00100000
00010100
01000000
,
01100000
00000000
00000000
00000010
00000110
00000000
00010100
00000000
,
11000000
00000000
00100000
00000100
00000010
01000000
00000000
00000000
,
10000001
00000000
00000000
00000000
;
