#TITLE:Follow Me;
#SUBTITLE:;
#ARTIST:李贞贤;
#TITLETRANSLIT:;
#SUBTITLETRANSLIT:;
#ARTISTTRANSLIT:Lee Jung Hyun;
#GENRE:;
#CREDIT:locuuraa;
#LYRICSPATH:;
#MUSIC:Follow Me.ogg;
#OFFSET:-0.300;
#SAMPLESTART:11.940;
#SAMPLELENGTH:12.000;
#SELECTABLE:YES;
#BPMS:0.000=131.000,30.500=10.000,31.500=23.000,32.000=60.000,32.333=131.000,32.500=131.000,33.000=131.000,173.000=155.000,196.500=60.000;
#STOPS:;
#KEYSOUNDS:;
#BANNER:Follow Me.png;
#BACKGROUND:Follow Me.png;
#CDTITLE:../CDTitles/4DSS.png;
#BGCHANGES:-14.700=Follow Me.avi=1.000=0=0=1,
229.000=Follow Me.png=1.000=0=0=1,
99999=-nosongbg-=1.000=0=0=0
;
#NOTES:
     ds3ddx-single:
     Hard:
     Medium:
     5:
     :
00000000
00000000
00000000
00000000
,
00000000
00000000
00000000
00000000
,
00010000
10000000
00010000
00100000
00100000
00100000
00100000
00000100
,
00000100
00000100
00000100
00000000
00100100
10000001
00100000
00000100
,
00100000
00000100
00100000
00000100
10000000
01000000
00000010
01000000
,
00000010
01000000
00000010
01000000
10000001
00100000
00000100
00000010
,
00100000
01000000
00000010
01000000
00000100
00100000
00000100
00100000
,
00010000
00010000
10000000
00000001
00110000
00000000
00000000
00000000
,
00000000
00000000
10100000
00000000
10100000
00000000
00100000
01000000
,
00000011
00000000
00000101
00000000
00000101
00000000
00000100
00000010
,
11000000
00000000
00010100
00000000
00110000
00000000
10000000
00000001
,
00010000
00000000
00110000
00000000
00010100
00000000
00000001
10000000
,
00010000
00000000
00100000
00000100
00000000
10000001
00000000
00000100
,
00000100
00000100
01000000
01000000
00000010
11000000
00000000
00000010
,
00100000
00000100
01000000
00000010
00000000
10000001
00000000
01000000
,
01000000
01000000
00000000
00000100
00000100
00000100
10010000
00000000
,
00000000
00000000
01000000
00000000
01000000
00000000
00000100
00100000
,
00000100
00000000
00000010
00000000
00000010
00000000
00100000
00000100
,
00100000
00000000
00100000
00000100
00100000
00000000
00000101
00000000
,
00000101
00000000
01000000
00000010
01000000
00000000
11000000
00000000
,
11000000
00000010
00100000
00000100
,
01000000
01000000
00000100
00100000
,
00000010
00000000
00000010
00000100
00100000
01000000
00000010
00000000
,
00000001
00000000
00000100
00100000
00100000
00000100
10000001
00000000
,
00000000
11000000
00000000
00000101
,
10100000
00010010
00000000
00010000
,
00010000
00000101
00000000
10100000
,
00000011
00000000
00000000
00100000
00100000
01000000
00000011
00000000
,
00000000
00000000
00100000
00000100
00100000
00000000
00100001
00000000
,
10000100
00000000
00000100
00100000
00000100
00000000
00100001
00000000
,
10000100
00000000
00100000
00000100
00100000
00000000
00100000
01000000
,
00000010
00000100
10100000
00000000
00000000
00000000
00000100
00000000
,
01000000
01000000
10000001
00000000
00000000
00000000
00000000
00000000
,
00000000
00100000
00000101
00000000
00000000
00000000
00000000
00000000
,
00000000
11000001
00000000
00000000
,
00000000
00000010
11000000
00000000
01100000
00000000
00100100
00000000
,
00000110
11000001
00000000
00000000
,
00000000
00000100
10100000
00000000
00000000
00000000
00000000
00000000
,
00000000
11000000
00000000
00000011
,
00000000
00000110
00100100
01100000
,
10000011
00000000
01000000
00000000
00000001
00000001
00000100
10000000
,
10000000
00000000
00100000
00000000
00000100
00000100
00000000
10000000
,
00000001
10000000
00000010
00000000
01000000
01000000
00000000
00100000
,
01000000
00100000
00000000
01000000
00000000
00000100
00000100
00000000
,
00100000
00000100
00100000
00000000
00000100
01000000
00000010
01000000
,
00000000
00000000
00100000
00100000
00100000
00000100
00000000
00000000
,
10000000
00000001
00000000
01000000
01000000
01000000
00100000
00000010
,
01000000
00000010
00000000
00000000
00000100
00000100
00000100
00000000
,
00100000
00000000
00000010
01000000
00000100
00100000
00010000
00010000
,
00010000
00000000
00000000
10000001
00000000
00000000
00000000
00000000
00000000
00100100
00000000
00100100
00000000
00100100
00000000
10100010
00000000
00000000
00000000
00000000
00000000
00000000
00000000
00000000
;
