#TITLE:Follow Me (ver\:remix);
#SUBTITLE:;
#ARTIST:李贞贤;
#TITLETRANSLIT:;
#SUBTITLETRANSLIT:;
#ARTISTTRANSLIT:Lee Jung Hyun;
#GENRE:;
#CREDIT:locuuraa;
#LYRICSPATH:;
#MUSIC:Follow Me (verremix).ogg;
#OFFSET:0.840;
#SAMPLESTART:12.000;
#SAMPLELENGTH:12.000;
#SELECTABLE:YES;
#BPMS:0.000=138.000;
#STOPS:;
#KEYSOUNDS:;
#BANNER:Follow Me (verremix).png;
#BACKGROUND:Follow Me (verremix).png;
#CDTITLE:../CDTitles/4DSS.png;
#BGCHANGES:-14.700=Follow Me (verremix).avi=1.000=0=0=1,
229.000=Follow Me (verremix).png=1.000=0=0=1,
99999=-nosongbg-=1.000=0=0=0
;
#NOTES:
     ds3ddx-single:
     Hard:
     Medium:
     4:
     :
00000000
00000000
00000000
10000000
,
00000000
00000001
00000000
10000000
,
00000000
00000000
00000001
00000000
00000000
00000000
00100000
00000100
,
00100000
00000000
00000010
00000000
01000000
00000000
00000100
00100000
,
00000100
00000000
01000000
00000000
00000100
00000000
00100000
00000010
,
00100000
00000000
00000010
00000000
00100000
00000000
00100000
00000010
,
00100000
00000011
11000000
00000100
,
00100000
00000010
01000000
00000010
,
00000101
01000000
10100000
00000100
,
00000010
01000000
00000011
00100000
,
10000100
00000000
00100000
00000100
00100000
00000100
10100000
00000000
,
00000011
01000000
00110000
00000010
,
00010100
00000000
01000000
01000000
00000010
00000010
01000000
00000010
,
00010100
00100000
11000011
00010000
,
00000000
00000000
00000000
01000000
,
00000011
00000010
11000000
00010100
,
00000101
00000000
11000000
00000000
00000011
01000000
00000010
00000000
,
01000000
00000100
00000010
00100000
,
01000000
00010000
00000010
00000000
,
00000000
10000000
00000001
00000000
,
00000000
00000000
00010000
10000000
00000001
00000000
00000000
00000000
,
00000000
00000000
10000000
00010000
00000000
00000000
00000000
00000000
,
00000000
00000000
00010000
00000001
11000000
00000000
00000010
00000000
,
00000010
01000000
00000100
00100000
,
00000010
10100000
10100000
00000100
,
00000010
01000000
00010010
00100000
,
00000100
00000000
00100000
00000100
00100000
00000000
00000100
00000000
,
11000000
00000100
01000000
00100000
,
00000011
00100000
00000010
00100000
,
00000101
00100000
00000011
01000000
,
00000101
00000000
00100000
01000000
00100000
00000000
00000100
00000000
,
00000011
01000000
10000010
00010100
,
01000000
00000010
00000100
11000000
,
00000001
00010000
10000000
00000001
,
01000000
00000100
01000000
00000000
00000101
00000000
00100000
00000000
,
00100000
00000100
00000100
11000000
,
00000011
10100000
00000101
00000100
,
00010100
00100000
01001000
00000001
,
10000000
00010000
10000001
00000010
,
00000010
01000000
00000101
01000000
,
00000010
01000000
00000100
10100000
,
00000100
00000000
00000100
00000000
00100000
00000000
00000010
01000000
,
00000010
00000000
01000000
00000000
00000010
01000000
00000000
00010100
00000000
00000000
00000000
00000000
01000000
00000000
00000000
00000000
,
00000011
00000100
10100000
00000010
,
11000011
00100000
10100101
00100000
,
01100000
00000100
00000110
00100000
,
01000010
00000010
00100100
01000000
,
00000100
00000010
00100000
00000101
,
00100000
00000010
10100011
01000000
,
00000100
00000000
00000001
00000000
00010000
00000000
01000000
00000010
,
01000000
00000000
00000000
00000100
00000000
00000000
01000000
00000000
00000000
00000010
00000000
00000010
,
00000000
00000010
00000000
10000000
00000000
00000000
00000000
00000000
00000000
00000000
00000000
00000000
;
