#TITLE:Floor Filler;
#SUBTITLE:;
#ARTIST:a-teens;
#TITLETRANSLIT:;
#SUBTITLETRANSLIT:;
#ARTISTTRANSLIT:;
#GENRE:;
#CREDIT:locuuraa;
#LYRICSPATH:;
#MUSIC:Floor Filler.ogg;
#OFFSET:1.640;
#SAMPLESTART:10.840;
#SAMPLELENGTH:12.000;
#SELECTABLE:YES;
#BPMS:0.000=122.030;
#STOPS:;
#KEYSOUNDS:;
#BANNER:Floor Filler.png;
#BACKGROUND:Floor Filler.png;
#CDTITLE:../CDTitles/4DSS.png;
#BGCHANGES:-14.700=Floor Filler.avi=1.000=0=0=1,
229.000=Floor Filler.png=1.000=0=0=1,
99999=-nosongbg-=1.000=0=0=0
;
#NOTES:
     ds3ddx-single:
     Hard:
     Medium:
     4:
     :
00000000
00000000
00000000
00000000
,
00000000
00000000
00000000
00000000
,
00000000
00000000
00000000
00000000
,
00000000
00000000
00000000
00000000
,
00000000
00000000
00000000
00000000
,
00100000
00000100
00100000
00000100
,
00100000
01000000
00000010
00010000
,
00000100
00100000
00000100
00100000
,
00000100
00000000
00000010
00000000
01000000
00100000
01000000
00000000
,
00000100
00000011
00000100
00110000
,
01000000
01000000
00100100
00000000
,
00000100
00100000
01000000
00000010
,
00000100
00100000
01000000
00000010
01000000
00100000
00000000
00000000
,
00000100
00000010
00100000
01000000
,
00000100
00000000
10000101
00000000
00100000
00000100
00100000
00000000
,
00000100
00000010
00100000
01000000
,
00100000
00000000
10000101
00000000
01000000
00000010
01000000
00000000
,
00000100
00100000
01000000
00000010
,
00000100
00010000
00010000
00000000
,
00000010
01000000
00100000
00000100
,
00100000
00000000
10000001
00010000
10000001
00000000
00100000
00000000
,
00000010
00000100
00100000
01000000
,
00000010
01000001
10000010
01000000
,
00000100
01000000
00000010
00000100
,
00100000
10000100
00100001
00000000
,
00011000
00000000
00000000
00000000
,
10000011
00000000
00000000
00000000
,
00100000
00000100
00000100
00100000
,
10100101
00000000
00000000
00000000
,
00100000
00000000
00000100
00000000
00000010
10000000
00000001
00000000
,
00011000
10000001
00011000
00100100
,
00000100
00000000
00100000
00000000
01000000
00000001
10000000
00000000
,
00011000
10000001
00011000
00100100
,
00100000
01000000
00100000
00000100
00010000
00010000
10000001
00010000
,
00000100
00000010
00000100
00100000
00010000
00010000
10000001
00000000
,
00110001
00000000
10010100
00000000
,
00110001
00000000
10010100
00000000
,
00100000
00000000
00000100
00000000
00000010
10000000
00000001
00000000
,
00011000
10000001
00011000
10000001
,
01000000
00100000
01000000
00000010
10000000
00010000
00000001
00000000
,
00000100
00000101
00100000
11000000
,
00100000
01000000
00100000
00000100
00010000
00010000
10000001
00010000
,
00000100
00000010
00000100
00100000
00010000
00010000
10000001
00000000
,
00110001
00000000
10010100
00000000
,
00110001
00000000
10010100
00000001
,
10100100
00000000
00000000
00000000
,
00000000
00000000
00000000
00000000
00000010
00000100
00000010
00000000
,
00010000
00010000
10000000
10000000
,
00000001
00000000
00000001
00000000
01000000
00000010
01000000
00000010
,
00011000
00000000
00000000
00000000
;
#NOTES:
     ds3ddx-single:
     Easy:
     Easy:
     3:
     :
00000000
00000000
00000000
00000000
,
00000000
00000000
00000000
00000000
,
00000000
00000000
00000000
00000000
,
00000000
00000000
00000000
00000000
,
00000000
00000000
00000000
00000000
,
00100000
00000000
00100000
00000100
,
00000000
01000000
00000010
00000000
,
00000100
00000000
00000100
00100000
,
00000000
00000010
01000000
01000000
,
00000100
00000000
00000100
00110000
,
00000000
01000000
00000100
00000000
,
00000100
00100000
01000000
00000010
,
00000000
01000000
00000000
00100000
,
00000100
00000010
00100000
00000000
,
00000100
00000100
00100000
00100000
,
00000000
00000010
00100000
00000000
,
00100000
10000001
00000000
01000000
,
00000100
00000000
01000000
00000010
,
00000000
00010000
00010000
00000000
,
00000010
01000000
00000000
00000100
,
00000000
10000001
00000000
00100000
,
00000000
00000100
00100000
00000000
,
00000010
00000000
10000010
00000000
,
00000100
01000000
00000000
00000100
,
00000000
00000100
00100000
00000000
,
00011000
00000000
00000000
00000000
,
00000011
00000000
00000000
00000000
,
00100000
00000000
00000100
00000000
,
00000101
00000000
00000000
00000000
,
00100000
00000100
00000000
00000000
,
00011000
10000001
00000000
00100100
,
00000000
00100000
00000000
10000000
,
00010000
00000001
00010000
00000000
,
00100000
00000000
00010000
00000000
,
00000100
00000000
00010000
00000000
,
00110000
00000000
00010100
00000000
,
00000001
00000000
10000000
00000000
,
00100000
00000000
00000010
00000000
,
00010000
00000000
00010000
00000000
,
01000000
00000000
10000000
00000001
,
00000000
00000100
00100000
00000000
,
00100000
00000000
00000100
00000000
,
00000100
00000000
00100000
00000000
,
00110000
00000000
00010100
00000000
,
00110000
00000000
00010000
00000000
,
00100100
00000000
00000000
00000000
,
00000000
00000000
00000010
00000010
,
00010000
00010000
10000000
10000000
,
00000001
00000001
01000000
00000010
,
00011000
00000000
00000000
00000000
;
#NOTES:
     ds3ddx-double:
     Club:
     Easy:
     4:
     :
0000000000000000
0000000000000000
0000000000000000
0000000000000000
,
0000000000000000
0000000000000000
0000000000000000
0000000000000000
,
0000000000000000
0000000000000000
0000000000000000
0000000000000000
,
0000000000000000
0000000000000000
0000000000000000
0000000000000000
,
0000000000000000
0000000000000000
0000000000000000
0000000000000000
,
0010000000000000
0000010000000000
0010000000000000
0000010000000000
,
0010000000000000
0100000000000000
0000001000000000
0001000000000000
,
0000010000000000
0000001000000000
0000000000100000
0000000001000000
,
0000000000000100
0000000000000000
0000000000000010
0000000000000000
0000000001000000
0000000000100000
0000000001000000
0000000000000000
,
0000000000000100
0000000000000011
0000000000000100
0000000000110000
,
0000000001000000
0000000001000000
0000010000100000
0000000000000000
,
0000010000000000
0010000000000000
0100000000000000
0000001000000000
,
0000010000000000
0010000000000000
0100000000000000
0000001000000000
0100000000000000
0010000000000000
0000000000000000
0000000000000000
,
0000010000000000
0000001000000000
0010000000000000
0100000000000000
,
0000010000000000
0000000000000000
1000010100000000
0000000000000000
0010000000000000
0000010000000000
0010000000000000
0000000000000000
,
0000010000000000
0000001000000000
0000000001000000
0000010000000000
,
0000000000100000
0000000000000000
0000000010000101
0000000000000000
0000000001000000
0000000000000010
0000000001000000
0000000000000000
,
0000000000000100
0000000000100000
0000000001000000
0000000000000010
,
0000000000100000
0000000000010000
0000000000010000
0000000000000000
,
0000001000000000
0100000000000000
0010000000000000
0000010000000000
,
0010000000000000
0000000000000000
1000000100000000
0001000000000000
1000000100000000
0000000000000000
0010000000000000
0000000000000000
,
0000001000000000
0000010000000000
0010000000000000
0100000000000000
,
0000001000000000
0100000100000000
1000001000000000
0100000000000000
,
0000010000000000
0000001000000000
0000000001000000
0000000000100000
,
0000000000000100
0000000010000100
0000000000100001
0000000000000000
,
0000000000011000
0000000000000000
0000000000000000
0000000000000000
,
0000000010000011
0000000000000000
0000000000000000
0000000000000000
,
0000000000100000
0000000000000100
0000000000000100
0000000000100000
,
0000000010100101
0000000000000000
0000000000000000
0000000000000000
,
0010000000000000
0000000000000000
0000010000000000
0000000000000000
0000001000000000
1000000000000000
0000000100000000
0000000000000000
,
0001100000000000
1000000100000000
0001100000000000
0010010000000000
,
0000010000000000
0000000000000000
0010000000000000
0000000000000000
0100000000000000
0000000100000000
1000000000000000
0000000000000000
,
0000000000010000
0000000010000001
0000000000011000
0000000000100100
,
0000000000100000
0000000001000000
0000000000100000
0000000000000100
0000000000010000
0000000000010000
0000000010000001
0000000000010000
,
0000000000000100
0000000000000010
0000000000000100
0000000000100000
0000000000010000
0000000000010000
0000000010000001
0000000000000000
,
0000000000110001
0000000000000000
0000000010010100
0000000000000000
,
0000000000110001
0000000000000000
0000000010010100
0000000000000000
,
0000010000000000
0000000000000000
0010000000000000
0000000000000000
0000001000000000
1000000000000000
0000000100000000
0000000000000000
,
0001100000000000
1000000100000000
0001100000000000
1000000100000000
,
0100000000000000
0010000000000000
0100000000000000
0000001000000000
1000000000000000
0001000000000000
0000000100000000
0000000000000000
,
0000000000100000
0000000001000010
0000000000100000
0000000011000000
,
0000000000100000
0000000001000000
0000000000100000
0000000000000100
0000000000010000
0000000000010000
0000000010000001
0000000000010000
,
0000000000000100
0000000000000010
0000000000000100
0000000000100000
0000000000010000
0000000000010000
0000000010000001
0000000000000000
,
0000000010010100
0000000000000000
0000000010010100
0000000000000000
,
0000000000110001
0000000000000000
0000000010010100
0000000000000001
,
0000000010100100
0000000000000000
0000000000000000
0000000000000000
,
0000000000000000
0000000000000000
0000000000000000
0000000000000000
0000001000000000
0000010000000000
0000001000000000
0000000000000000
,
0001000000000000
0001000000000000
1000000000000000
1000000000000000
,
0000000100000000
0000000000000000
0000000100000000
0000000000000000
0100000000000000
0000001000000000
0100000000000000
0000001000000000
,
0001100000000000
0000000000000000
0000000000000000
0000000000000000
;
