#TITLE:Far Away From Home;
#SUBTITLE:;
#ARTIST:Groove Coverage;
#TITLETRANSLIT:;
#SUBTITLETRANSLIT:;
#ARTISTTRANSLIT:;
#GENRE:;
#CREDIT:locuuraa;
#LYRICSPATH:;
#MUSIC:Far Away From Home.ogg;
#OFFSET:1.160;
#SAMPLESTART:12.020;
#SAMPLELENGTH:12.000;
#SELECTABLE:YES;
#BPMS:0.000=91.000;
#STOPS:;
#KEYSOUNDS:;
#BANNER:Far Away From Home.png;
#BACKGROUND:Far Away From Home.png;
#CDTITLE:../CDTitles/4DSS.png;
#BGCHANGES:-14.700=Far Away From Home.avi=1.000=0=0=1,
229.000=Far Away From Home.png=1.000=0=0=1,
99999=-nosongbg-=1.000=0=0=0
;
#NOTES:
     ds3ddx-double:
     Club:
     Easy:
     4:
     :
0000000000000000
0000000000000000
0100000000000000
0000001000000000
,
0000010000000000
0000000000100000
0000000001000000
0000000000000010
,
0000000001000000
0000000000000010
0000000011000000
0000000000000000
0000000000000100
0000000000000000
0000000000000100
0000000000000000
,
0000000001000000
0000000000100000
0001010000000000
0000000000110000
,
0000010000000000
0000000000100000
0000010000000000
0000000000000000
0000001000000000
0000000000000000
0010000000000000
0000000000000000
,
0000010000000000
0000001000000000
0000010000000000
0000000000000000
0010000000000000
0000000000000000
1010010100000000
0000000000000000
,
0000001000000000
0100000000000000
1100001100000000
0000000000000000
0100000000000000
0000000000000000
0000001100000000
0000000000000000
,
0000010000000000
0000000000100000
0000000001000000
0000000000100000
,
0001010000000000
0000000000000000
0000000000000000
0000000000000000
0000001000000000
0100000000000000
0000001000000000
0000000000000000
,
0010000000000000
0000010000000000
1010000000000000
0000000000000000
0000001100000000
0000000000000000
1100000000000000
0000000000000000
,
0000001000000000
0000010000000000
0000000000100000
0000000000000000
0000000001000000
0000000000000000
0000000000000010
0000000000000000
,
0000000000000101
0000000010100000
0000000000000101
0000000001000000
,
0000000000100000
0000010000000000
0000000000100000
0000010000110000
,
0000010000000000
0001011000000000
0100000000000000
0000001000000000
,
0100000000000000
0000001000000000
0011000000000000
0000000000000000
0000010000000000
0000000000000000
0100000000000000
0000000000000000
,
0000001000000000
1100000000000000
0000001100000000
0010000000000000
,
0001010000000000
0000000000000000
0000001000000000
0000010000000000
,
0000000000100000
0001010000000000
0000001000000000
0000001000000000
,
0100000000000000
0000001000000000
1100001100000000
0000000000000000
0000010000000000
0010000000000000
0000001100000000
0000000000000000
,
0000010000000000
0000000000100000
0000010000000000
0000000000000000
0000000000000100
0000000000000000
0000000011000000
0000000000000000
,
0000000000100000
0000001001000000
1000000000000000
0001000000000000
,
0000000110000000
0000010000000000
0000010000000000
0010000000000000
,
0001010000000000
0010000000000000
0100000000000000
0000000000000000
0000000100000000
0001000000000000
1010000000000000
0000000000000000
,
1000000000000000
0001000000000000
0000010100000000
0000000000000000
0000000000100000
0000000000000000
0000000001000000
0000000000000000
,
0000000000000011
0000000000110000
0000000000000010
0000000011000000
,
0000010000000000
0000000000100000
0000010000000000
0000000000000000
0100000000000000
0000001000000000
0000010000000000
0000000000000000
,
0000000001000000
0000001000000000
0000000001000000
0000000000000000
0000010000000000
0000000000100000
0000010000000000
0000000000000000
,
0000000000100000
0000010000000000
0000001000000000
0000000000000000
0100000000000000
0000000000000000
0000001000000000
0010000000000000
,
0001010000000000
1100000000000000
0000000100000000
1000000000000000
,
0001000000000000
0000001100000000
0000010000000000
0000000000100000
,
0000000001000000
0000010000000000
0000000000110000
0000000000100000
,
0001010000000000
1000000000000000
0000000100000000
0001000000000000
,
0100000000000000
0000001000000000
1100000000000000
0000000000000000
0000000001000000
0000001000000000
0000000001000000
0000000000000000
,
0000010000000000
0000000000100000
0000010000000000
0000000000000000
0010000000000000
0000000000000000
0000010000000000
0000000000000000
,
0010000000000000
0000001000000000
0000010000000000
0000000000000000
0000000000100000
0000000000000000
0000000001010000
0000000000000000
,
0000010000000000
0001001000000000
0000000001000000
0000001000000000
,
0000000001000000
0000000110000000
0000000000000000
0000000000000000
;
#NOTES:
     ds3ddx-single:
     Hard:
     Medium:
     3:
     :
00000000
00000000
01000000
00000010
,
11000000
00000011
01000000
00000010
,
01000000
00000010
11000000
00000000
00000100
00000000
00000100
00000000
,
00100000
00100000
00000101
10100000
,
00000100
00100000
00000101
00000000
00100000
01000000
00100000
00000000
,
00000100
00000010
00000100
00000000
00100000
00000000
10100101
00000000
,
00000010
01000000
11000011
00000000
01000000
01000000
00000011
00000000
,
00000100
00000100
10100000
00000000
00000100
00000000
00011010
00000000
,
00100000
00000000
01011000
00000000
00000010
01000000
00000010
00000000
,
00100000
00000100
10100000
00000000
00000011
00000000
11000000
00000000
,
00000101
10100101
00000010
01000000
,
00000101
10100000
00000101
00000000
,
00000000
00000000
00100000
01110000
,
00000100
00010110
01000000
00000010
,
01000000
00000010
00110000
00000000
00000100
00000000
01000000
00000000
,
00000010
11000000
00000011
00100000
,
00010100
00000000
00000000
00000000
01000000
00000010
11000000
00000000
,
00000100
00100000
00000101
00000000
00000010
00000000
00000010
00000000
,
01000000
00000010
11000011
00000000
00000100
00100000
00000011
00000000
,
00100000
00000100
11000000
00000000
00000001
00000000
10000000
00000000
,
00010100
00000001
10000000
00001000
,
00000001
00110000
00000001
10000000
,
00010100
00100000
01000000
00000000
00000001
00010000
10100000
00000000
,
10000000
00010000
00000101
00000000
00000010
00000000
01000000
00000000
,
00000011
00110000
00000010
01000000
,
00000100
00100000
00000011
00000000
01000000
01000000
00000011
00000000
,
01000000
00000010
10100101
00000000
00000100
00000000
01000000
00000000
,
00000100
01000000
10000100
00000000
01000000
00000000
00000010
00100000
,
00010100
11000000
00000001
10000000
,
00010000
00000011
10000000
00011000
,
00110000
11000000
00000101
00110000
,
00000001
10000000
00011000
00000001
,
01000000
00000010
11000000
00000000
00000010
00000000
00000011
00000000
,
01000000
11000000
00000100
00100000
,
00000100
00100000
00010100
00000000
11000000
00000000
00000011
00000000
,
00000001
00010000
10100000
00000000
00000010
00000000
01000000
00000000
,
00000010
11000000
00000000
00000000
;
#NOTES:
     ds3ddx-single:
     Easy:
     Easy:
     3:
     :
00000000
00000000
00100000
00000100
,
01000000
00000010
01000000
00000100
,
01000000
00000010
00000100
00000100
,
00100000
00100000
00000101
10100000
,
00000100
00100100
00000000
00000000
,
00000100
00000100
00100000
00000000
,
00000010
01000000
00000000
00000011
,
00000000
00100000
00000100
00000000
,
00100000
00000000
00000010
00000000
,
00100000
00000000
00000010
01000000
,
00010000
00000000
00000010
01000000
,
00000101
00100000
00000001
00000000
,
00000000
00000000
00100000
00000000
,
00000100
00000000
01000000
00000010
,
01000000
00000000
00000100
01000000
,
00000010
11000000
00000000
00000100
,
00000000
00000000
01000000
00000000
,
00000100
00000100
00000010
00000010
,
00000000
11000000
00000100
00000010
,
00100000
00000000
00000001
10000000
,
00000000
00000001
10000000
00001000
,
00000001
00000000
00000001
10000000
,
00010000
00000000
00000001
00000000
,
10000000
00000001
00000010
00000000
,
00000011
00000000
00000010
00000000
,
00000100
00000000
01000000
00000000
,
01000000
00000000
00000100
01000000
,
00000100
00000000
00000000
00000000
,
00000100
00000000
00100000
00000000
,
00010000
00000000
10000000
00000000
,
00010000
00000000
00000101
00000000
,
00000000
10000000
00000000
00000001
,
01000000
00000010
00000000
00000001
,
00000000
11000000
00000100
00000000
,
00000100
00000000
11000000
00000000
,
00000000
00100000
00000010
01000000
,
00000010
11000000
00000000
00000000
;
